Кенгуру Джекпот / Кенгуру Джек / Kangaroo Jack (Дэвид МакНалли / David McNally) [2003 г., комедия, приключения, криминал, DVDRip-AVC] DUB + MVO + ENG + Subs

Ответить на тему
 
Автор
Сообщение

awk05 ®

Пол:

Стаж: 6 лет

Сообщений: 1352

Репутация: 275 [+] [-]

Откуда: Западная Украина Ривне

Пост 19-Янв-2014 19:17

[Цитировать] 

--Кенгуру Джекпот / Кенгуру Джек / Kangaroo Jack-- Год выпуска: 2003
Страна: США, Австралия
Жанр: комедия, приключения, криминал
Продолжительность: 01:25:25
Перевод: Профессиональный (полное дублирование)
Русские субтитры: есть--Режиссер: Дэвид МакНалли / David McNally--В ролях: Джерри О`Коннелл, Энтони Андерсон, Эстелла Уоррен, Кристофер Уокен, Мартон Чокаш, Дайэн Кэннон, Майкл Шэннон, Билл Хантер, Дэвид Нгумбуджарра, Mark Sellito--Описание: Чарли и Луис, молодые неудачники-американцы, вечно попадающие впросак, посланы крутым мафиози в Австралию с конвертом, где содержалось 50 тысяч долларов. Но по дурости и исключительно ради хохмы они нацепили куртку с деньгами в кармане на сбитого их же машиной кенгуру, который вдруг ожил и сбежал со всем содержимым в неизвестном направлении. Обоим горе-перевозчикам предстоит не только разыскать исчезнувшего сумчатого животного, но и попытаться избежать кары со стороны местного наёмного убийцы, которому они должны были передать этот пакет, а главное — уклониться от специального посланника мафии из Америки, направленного с целью расправы над двумя заполошными типами, приносящими одни несчастья. Так что поимка ими кенгуру с деньгами — вовсе не случайный выигрыш в казино (то есть джекпот), а отчаянная попытка остаться в живых, хотя нельзя не признать, что без большого везения обоим точно бы не поздоровилось.--Качество: DVDRip-AVC
Формат: MKV
Видео кодек: H.264
Аудио кодек: AC3
Видео: 720x424@1024x424, 2191 Kbps, 25.000 fps
Аудио 1: 48000 Hz, 5.1 channels, 384 Kbps - Профессиональный (полное дублирование)
Аудио 2: 48000 Hz, 5.1 channels, 384 Kbps - Профессиональный (многоголосый)
Аудио 3: 48000 Hz, 5.1 channels, 384 Kbps - Оригинальный (английский)
Субтитры: SRT - русские, английские-- --

Скриншоты


MediaInfo

Format : Matroska
Format version : Version 2
File size : 2.17 GiB
Duration : 1h 31mn
Overall bit rate : 3 411 Kbps
Movie name : Кенгуру Джекпот / Кенгуру Джек / Kangaroo Jack (2003) DVDRip-AVC
Encoded date : UTC 2011-08-20 16:16:03
Writing application : mkvmerge v4.9.1 ('Ich will') сборка от Jul 11 2011 23:53:15
Writing library : libebml v1.2.1 + libmatroska v1.1.1
Attachment : Yes
Video
ID : 1
Format : AVC
Format/Info : Advanced Video Codec
Format profile : High@L3.1
Format settings, CABAC : Yes
Format settings, ReFrames : 12 frames
Codec ID : V_MPEG4/ISO/AVC
Duration : 1h 31mn
Bit rate : 2 191 Kbps
Nominal bit rate : 2 495 Kbps
Width : 720 pixels
Height : 424 pixels
Display aspect ratio : 2.40:1
Frame rate : 25.000 fps
Color space : YUV
Chroma subsampling : 4:2:0
Bit depth : 8 bits
Scan type : Progressive
Bits/(Pixel*Frame) : 0.287
Stream size : 1.39 GiB (64%)
Writing library : x264 core 116 r2057 0ba8a9c
Encoding settings : cabac=1 / ref=12 / deblock=1:-2:-1 / analyse=0x3:0x133 / me=umh / subme=9 / psy=1 / psy_rd=1.05:0.05 / mixed_ref=1 / me_range=24 / chroma_me=1 / trellis=2 / 8x8dct=1 / cqm=0 / deadzone=21,11 / fast_pskip=0 / chroma_qp_offset=-3 / threads=6 / sliced_threads=0 / nr=0 / decimate=1 / interlaced=0 / bluray_compat=0 / constrained_intra=0 / bframes=10 / b_pyramid=2 / b_adapt=2 / b_bias=0 / direct=3 / weightb=1 / open_gop=0 / weightp=2 / keyint=250 / keyint_min=25 / scenecut=40 / intra_refresh=0 / rc=2pass / mbtree=0 / bitrate=2495 / ratetol=1.0 / qcomp=0.70 / qpmin=0 / qpmax=69 / qpstep=4 / cplxblur=20.0 / qblur=0.5 / ip_ratio=1.40 / pb_ratio=1.30 / aq=1:1.00
Language : English
Audio #1
ID : 2
Format : AC-3
Format/Info : Audio Coding 3
Mode extension : CM (complete main)
Codec ID : A_AC3
Duration : 1h 31mn
Bit rate mode : Constant
Bit rate : 384 Kbps
Channel(s) : 6 channels
Channel positions : Front: L C R, Side: L R, LFE
Sampling rate : 48.0 KHz
Bit depth : 16 bits
Compression mode : Lossy
Stream size : 250 MiB (11%)
Title : AC3 5.1 384 Kbps - DUB
Language : Russian
Audio #2
ID : 3
Format : AC-3
Format/Info : Audio Coding 3
Mode extension : CM (complete main)
Codec ID : A_AC3
Duration : 1h 31mn
Bit rate mode : Constant
Bit rate : 384 Kbps
Channel(s) : 6 channels
Channel positions : Front: L C R, Side: L R, LFE
Sampling rate : 48.0 KHz
Bit depth : 16 bits
Compression mode : Lossy
Stream size : 250 MiB (11%)
Title : AC3 5.1 384 Kbps - MVO
Language : Russian
Audio #3
ID : 4
Format : AC-3
Format/Info : Audio Coding 3
Mode extension : CM (complete main)
Codec ID : A_AC3
Duration : 1h 31mn
Bit rate mode : Constant
Bit rate : 384 Kbps
Channel(s) : 6 channels
Channel positions : Front: L C R, Side: L R, LFE
Sampling rate : 48.0 KHz
Bit depth : 16 bits
Compression mode : Lossy
Stream size : 250 MiB (11%)
Title : AC3 5.1 384 Kbps - ENG
Language : English
Text #1
ID : 5
Format : UTF-8
Codec ID : S_TEXT/UTF8
Codec ID/Info : UTF-8 Plain Text
Language : Russian
Text #2
ID : 6
Format : UTF-8
Codec ID : S_TEXT/UTF8
Codec ID/Info : UTF-8 Plain Text
Language : English
Menu
00:00:00.000 : en:When Charlie Met Louis
00:03:20.920 : en:Totally Legit Favor (Rock Da Juice)
00:07:37.040 : en:They Didn't Know!
00:09:49.200 : en:Missioin Down Under
00:13:22.840 : en:In the Bathroom
00:15:45.520 : en:Security Switch
00:17:57.560 : en:Jackie Legs (Down Under)
00:20:50.840 : en:Jumping Jacket Chase (Start the Commotion)
00:25:27.000 : en:Old Alice Inn
00:28:48.840 : en:Honey of a Plan
00:32:41.720 : en:Stages 1 to 4
00:37:16.480 : en:Due East - Like Brooklyn
00:40:32.880 : en:Desert Storms
00:42:04.440 : en:The Real Mirage (Hey Sexy Lady)
00:45:48.640 : en:Kangaroo Dreams
00:47:20.040 : en:A Habit of Camels
00:51:26.640 : en:Getting and Losing a Ride (Round Round)
00:53:51.840 : en:Ants in His Pants
00:56:11.600 : en:There Goes the Moment
00:58:56.760 : en:Mr. Smith Catches Up
01:01:23.760 : en:Turn 'em Around
01:03:30.200 : en:Hot Stuff
01:04:13.040 : en:Mutually Agitated
01:08:13.840 : en:Tight Fit
01:10:03.760 : en:Frankie Goes Long
01:14:00.200 : en:Intimate Moments
01:18:09.680 : en:The Star (Soak Up the Sun)
01:20:21.640 : en:End Credits (Hey Baby)

_________________
[Торрент-статистика]
[Профиль]  [ЛС] 
Показать сообщения:    
Ответить на тему

Текущее время: Сегодня 21:48

Часовой пояс: GMT + 4



Вы не можете начинать темы
Вы не можете отвечать на сообщения
Вы не можете редактировать свои сообщения
Вы не можете удалять свои сообщения
Вы не можете голосовать в опросах
Вы не можете прикреплять файлы к сообщениям
Вы не можете скачивать файлы