Чего хотят женщины / What Women Want (Нэнси Мейерс / Nancy Meyers) [2000 г., фэнтези, мелодрама, комедия, DVDRip](дубляж!)

Ответить на тему
 
Автор
Сообщение

awk05 ®

Пол:

Стаж: 6 лет 3 месяца

Сообщений: 1351

Репутация: 275 [+] [-]

Откуда: Западная Украина Ривне

Пост 18-Янв-2014 03:32

[Цитировать] 

--Чего хотят женщины / What Women Want-- Год выпуска: 2000
Страна: США
Жанр: фэнтези, мелодрама, комедия
Продолжительность: 125 мин
Перевод: Профессиональный (полное дублирование)
Русские субтитры: нет--Режиссер: Нэнси Мейерс /Nancy Meyers/--В ролях: Мел Гибсон / Nick Marshall, Хелен Хант / Darcy Maguire, Мариса Томеи / Lola, Лорен Холли / Gigi, Марк Фойерстин / Morgan Farwell, Алан Алда / Dan Wanamaker, Бетт Мидлер /Dr. J.M. Perkins, Эшли Джонсон / Alex Marshall, Дельта Бурк / Eve--Описание: Сексапильный Ник Маршал — плейбой из Чикаго, считающий себя просто божьим подарком женскому населению планеты. Он находится на пике карьеры в одном из ведущих рекламных агентств и должен получить дальнейшее продвижение по службе… или должен был.
Глава агентства считает, что женщина лучше понимает рынок женских товаров. И вскоре в агентстве появляется очень талантливый эксперт и очаровательная женщина Дарси Макгуайр, которая становится руководителем Ника. Во время домашней проработки первого задания новой начальницы с Ником происходит несчастный случай, после которого он открывает в себе уникальный дар: он может читать женские мысли.
Эта способность сначала доводит Ника до полного отчаяния, а затем открывает шанс, читая мысли Дарси и выдавая их за свои, наконец вернуть себе утраченные позиции в агентстве.
И когда реализация коварного плана была в полном разгаре, одно непредвиденное обстоятельство свело все на нет. Имя этому обстоятельству — любовь…--Качество: DVDRip
Формат: AVI
Видео кодек: XviD
Аудио кодек: MP3
Видео: 704x400 (1.76:1), 23.976 fps кадра/сек, 1190 Кбит/сек, 0.176 Бит/(Пиксели*Кадры)
Аудио: 6 каналов Front: L C R, Side: L R, LFE, 48,0 КГц, 448 Кбит/сек-- --

MediaInfo

Общее
Полное имя : E:\Films\Чего хотят женщины_1.46_Dub.avi
Формат : AVI
Формат/Информация : Audio Video Interleave
Размер файла : 1,46 Гбайт
Продолжительность : 2 ч. 6 м.
Общий поток : 1647 Кбит/сек
Программа кодирования : VirtualDubMod 1.5.10.3 | www.virtualdub-fr.org || (build 2550/release)
Библиотека кодирования : VirtualDubMod build 2550/release
Видео
Идентификатор : 0
Формат : MPEG-4 Visual
Профиль формата : Advanced Simple@L5
Параметр BVOP формата : 1
Параметр QPel формата : Нет
Параметр GMC формата : Без точки перехода
Параметр матрицы формата : Выборочная
Идентификатор кодека : XVID
Идентификатор кодека/Подсказка : XviD
Продолжительность : 2 ч. 6 м.
Битрейт : 1190 Кбит/сек
Ширина : 704 пикселя
Высота : 400 пикселей
Соотношение сторон : 16:9
Частота кадров : 23,976 кадра/сек
Цветовое пространство : YUV
Субдискретизация насыщенности : 4:2:0
Битовая глубина : 8 бит
Тип развёртки : Прогрессивная
Метод сжатия : С потерями
Бит/(Пиксели*Кадры) : 0.176
Размер потока : 1,05 Гбайт (72%)
Библиотека кодирования : XviD 64
Аудио
Идентификатор : 1
Формат : AC-3
Формат/Информация : Audio Coding 3
Расширение режима : CM (complete main)
Параметр Endianness формата : Big
Идентификатор кодека : 2000
Продолжительность : 2 ч. 6 м.
Вид битрейта : Постоянный
Битрейт : 448 Кбит/сек
Каналы : 6 каналов
Расположение каналов : Front: L C R, Side: L R, LFE
Частота : 48,0 КГц
Битовая глубина : 16 бит
Метод сжатия : С потерями
Размер потока : 406 Мбайт (27%)
Выравнивание : Разделение по промежуткам
Продолжительность промежутка : 42 мс. (1,00 видеокадр)
Время предзагрузки промежутка : 500 мс.

_________________
[Торрент-статистика]
[Профиль]  [ЛС] 
Показать сообщения:    
Ответить на тему

Текущее время: Сегодня 06:15

Часовой пояс: GMT + 4



Вы не можете начинать темы
Вы не можете отвечать на сообщения
Вы не можете редактировать свои сообщения
Вы не можете удалять свои сообщения
Вы не можете голосовать в опросах
Вы не можете прикреплять файлы к сообщениям
Вы не можете скачивать файлы