Шафт / Shaft (Джон Синглтон / John Singleton) [2000, Германия, США, Криминальный боевик, триллер, DVDRip-AVC] MVO Премьер Sub Rus + Original Eng

Ответить на тему
 
Автор
Сообщение

awk05 ®

Пол:

Стаж: 6 лет 5 месяцев

Сообщений: 1347

Репутация: 275 [+] [-]

Откуда: Западная Украина Ривне

Пост 16-Янв-2014 20:51

[Цитировать] 

--Шафт / Shaft-- Страна: Германия, США
Жанр: Криминальный боевик, триллер
Год выпуска: 2000
Продолжительность: 01:35:14
Перевод: Профессиональный (многоголосый закадровый) Премьер Видео
Cубтитры: русские, английские
Оригинальная аудиодорожка: английский--Режиссер: Джон Синглтон / John Singleton--В ролях: Сэмюэл Л. Джексон / Samuel L. Jackson, Ванесса Уильямс / Vanessa Williams, Джеффри Райт / Jeffrey Wright, Кристиан Бэйл / Christian Bale, Баста Раймз / Busta Rhymes, Дэн Хедайя / Dan Hedaya--Описание: Все знают, что детектив Джон Шафт – самый крутой полицейскийв городе. Некоторые полагают, что его жестокие методы "работы с уголовниками" не оправданы. Это не так. Просто Джон один из тех людей в этом падшем городе, кто еще не забыл, что есть Справедливость! Вот за эту самую Справедливость Шафт и будет биться до конца. Нести нелегкую службу Шафту помогает дядя – полицейский в отставке, у которого в молодости все бандиты "стояли на ушах" и которому сам король диско, Айзик Хейс посвятил свою песню. На этот раз Шафту досталось сложное дело. Джону нужно, во что бы то ни стало, усадить за решетку безжалостного убийцу и найти единственного свидетеля, который ему в этом поможет.--Качество видео: DVDRip-AVC
Формат видео: MKV
Видео кодек: AVC
Аудио кодек: AC3
Видео: 720x320 (16:9), 25,000 кадра/сек, 1440 Кбит/сек,0.250 Бит/(Пиксели*Кадры)
Аудио 1: 2 канала Front: L R, 48,0 КГц, 256 Кбит/сек
Аудио 2: 6 каналов Front: L C R, Side: L R, LFE, 48,0 КГц, 448 Кбит/сек
Формат субтитров: softsub (SRT)-- --

MediaInfo

Общее
Уникальный идентификатор : 197080136572816893462508904976652140865 (0x944440EF01B107BA8FE4DE3C805F8141)
Полное имя : D:\Downloads\Shaft.2000.DVDRip-AVC.mkv
Формат : Matroska
Версия формата : Version 2
Размер файла : 1,43 Гбайт
Продолжительность : 1 ч. 35 м.
Общий поток : 2146 Кбит/сек
Дата кодирования : UTC 2011-12-03 16:08:18
Программа кодирования : mkvmerge v4.6.0 ('Still Crazy After All These Years') built on Mar 10 2011 02:50:32
Библиотека кодирования : libebml v1.2.0 + libmatroska v1.1.0
Видео
Идентификатор : 1
Формат : AVC
Формат/Информация : Advanced Video Codec
Профиль формата : High@L3.0
Параметр CABAC формата : Да
Параметр ReFrames формата : 5 кадров
Идентификатор кодека : V_MPEG4/ISO/AVC
Продолжительность : 1 ч. 35 м.
Битрейт : 1440 Кбит/сек
Ширина : 720 пикселей
Высота : 320 пикселей
Соотношение сторон : 2,25:1
Частота кадров : 25,000 кадров/сек
Цветовое пространство : YUV
Субдискретизация насыщенности : 4:2:0
Битовая глубина : 8 бит
Тип развёртки : Прогрессивная
Бит/(Пиксели*Кадры) : 0.250
Размер потока : 953 Мбайт (65%)
Библиотека кодирования : x264 core 65 r1074M b6bb3d4
Настройки программы : cabac=1 / ref=5 / deblock=1:1:1 / analyse=0x3:0x113 / me=umh / subme=7 / psy_rd=1.0:0.0 / mixed_ref=1 / me_range=16 / chroma_me=1 / trellis=2 / 8x8dct=1 / cqm=0 / deadzone=21,11 / chroma_qp_offset=-2 / threads=3 / nr=0 / decimate=0 / mbaff=0 / bframes=3 / b_pyramid=1 / b_adapt=1 / b_bias=0 / direct=3 / wpredb=1 / keyint=250 / keyint_min=25 / scenecut=40(pre) / rc=2pass / bitrate=1440 / ratetol=1.0 / qcomp=0.60 / qpmin=10 / qpmax=51 / qpstep=4 / cplxblur=20.0 / qblur=0.5 / ip_ratio=1.40 / pb_ratio=1.30 / aq=1:1.00
Язык : English
Default : Да
Forced : Нет
Аудио #1
Идентификатор : 2
Формат : AC-3
Формат/Информация : Audio Coding 3
Расширение режима : CM (complete main)
Идентификатор кодека : A_AC3
Продолжительность : 1 ч. 35 м.
Вид битрейта : Постоянный
Битрейт : 256 Кбит/сек
Каналы : 2 канала
Расположение каналов : Front: L R
Частота : 48,0 КГц
Битовая глубина : 16 бит
Метод сжатия : С потерями
Размер потока : 174 Мбайт (12%)
Заголовок : MVO
Язык : Russian
Default : Да
Forced : Нет
Аудио #2
Идентификатор : 3
Формат : AC-3
Формат/Информация : Audio Coding 3
Расширение режима : CM (complete main)
Идентификатор кодека : A_AC3
Продолжительность : 1 ч. 35 м.
Вид битрейта : Постоянный
Битрейт : 448 Кбит/сек
Каналы : 6 каналов
Расположение каналов : Front: L C R, Side: L R, LFE
Частота : 48,0 КГц
Битовая глубина : 16 бит
Метод сжатия : С потерями
Размер потока : 305 Мбайт (21%)
Заголовок : Orig
Язык : English
Default : Нет
Forced : Нет
Текст #1
Идентификатор : 4
Формат : UTF-8
Идентификатор кодека : S_TEXT/UTF8
Идентификатор кодека/Информация : UTF-8 Plain Text
Язык : Russian
Default : Да
Forced : Нет
Текст #2
Идентификатор : 5
Формат : UTF-8
Идентификатор кодека : S_TEXT/UTF8
Идентификатор кодека/Информация : UTF-8 Plain Text
Язык : English
Default : Нет
Forced : Нет

Скриншоты


_________________
[Торрент-статистика]
[Профиль]  [ЛС] 
Показать сообщения:    
Ответить на тему

Текущее время: Сегодня 20:16

Часовой пояс: GMT + 4



Вы не можете начинать темы
Вы не можете отвечать на сообщения
Вы не можете редактировать свои сообщения
Вы не можете удалять свои сообщения
Вы не можете голосовать в опросах
Вы не можете прикреплять файлы к сообщениям
Вы не можете скачивать файлы