Васаби / Wasabi (Жерар Кравчик / Gerard Krawczyk) [2001 г., Боевик, приключения, драма, криминал, комедия, BDRip] Dub

Ответить на тему
 
Автор
Сообщение

awk05 ®

Пол:

Стаж: 6 лет 6 месяцев

Сообщений: 1347

Репутация: 275 [+] [-]

Откуда: Западная Украина Ривне

Пост 16-Янв-2014 20:39

[Цитировать] 

--Васаби / Wasabi-- Год выпуска: 2001
Страна: Франция
Жанр: Боевик, приключения, драма, криминал, комедия
Продолжительность: 01:33:44
Перевод: Профессиональный (полное дублирование)
Русские субтитры: нет--Режиссер: Жерар Кравчик / Gerard Krawczyk--В ролях: Жан Рено, Мишель Мюллер, Риоко Хиросуе, Кароль Буке, Людовик Бертийот, Мишель Скурно, Ян Эпштейн, Александр Брик, Жан-Марк Монтальто, Вероник Бальм-Описание: Полицейский Юбер крут нравом и не дает спуску преступникам на парижских улицах. Лишь одно терзает Юбера и он страдает уже 19 лет - именно столько прошло с тех пор, как его в Токио покинула любимая женщина. Все эти 19 лет Юбер страдает, но не другой подруги жизни не находит. И вдруг неожиданно из Токио приходит известие, что его любимая умерла и Юбер - единственный наследник. По прилету в Токио его ждет несколько шокирующих новостей. Во-первых, у него есть дочка Юми 19 лет от роду, во-вторых, на счетах его бывшей подруги лежат 200 миллионов долларов, а в-третьих, эти деньги очень хочет заполучить...--Качество: BDRip
Формат: AVI
Видео кодек: XviD
Аудио кодек: AC3
Видео: 720x304 (2.35:1), 24,000 кадра/сек, 1774 Кбит/сек,0.34 Бит/(Пиксели*Кадры)
Аудио: 6 каналов Front: L C R, Side: L R, LFE, 48,0 КГц, 448 Кбит/сек-- --

MediaInfo

Общее
Полное имя : E:\Films\Wasabi.2001.BDRip.avi
Формат : AVI
Формат/Информация : Audio Video Interleave
Размер файла : 1,46 Гбайт
Продолжительность : 1 ч. 33 м.
Общий поток : 2232 Кбит/сек
Программа кодирования : VirtualDubMod 1.5.10.3 | www.virtualdub-fr.org || (build 2550/release)
Библиотека кодирования : VirtualDubMod build 2550/release
Видео
Идентификатор : 0
Формат : MPEG-4 Visual
Профиль формата : Advanced Simple@L5
Параметр BVOP формата : 2
Параметр QPel формата : Нет
Параметр GMC формата : Без точки перехода
Параметр матрицы формата : Выборочная
Идентификатор кодека : XVID
Идентификатор кодека/Подсказка : XviD
Продолжительность : 1 ч. 33 м.
Битрейт : 1774 Кбит/сек
Ширина : 720 пикселей
Высота : 304 пикселя
Соотношение сторон : 2,35:1
Частота кадров : 24,000 кадра/сек
Цветовое пространство : YUV
Субдискретизация насыщенности : 4:2:0
Битовая глубина : 8 бит
Тип развёртки : Прогрессивная
Метод сжатия : С потерями
Бит/(Пиксели*Кадры) : 0.338
Размер потока : 1,16 Гбайт (80%)
Библиотека кодирования : XviD 1.2.1 (UTC 2008-12-04)
Аудио
Идентификатор : 1
Формат : AC-3
Формат/Информация : Audio Coding 3
Расширение режима : CM (complete main)
Параметр Endianness формата : Big
Идентификатор кодека : 2000
Продолжительность : 1 ч. 33 м.
Вид битрейта : Постоянный
Битрейт : 448 Кбит/сек
Каналы : 6 каналов
Расположение каналов : Front: L C R, Side: L R, LFE
Частота : 48,0 КГц
Битовая глубина : 16 бит
Метод сжатия : С потерями
Размер потока : 300 Мбайт (20%)
Выравнивание : Разделение по промежуткам
Продолжительность промежутка : 42 мс. (1,00 видеокадр)
Время предзагрузки промежутка : 500 мс.

_________________
[Торрент-статистика]
[Профиль]  [ЛС] 
Показать сообщения:    
Ответить на тему

Текущее время: Сегодня 23:17

Часовой пояс: GMT + 4



Вы не можете начинать темы
Вы не можете отвечать на сообщения
Вы не можете редактировать свои сообщения
Вы не можете удалять свои сообщения
Вы не можете голосовать в опросах
Вы не можете прикреплять файлы к сообщениям
Вы не можете скачивать файлы