Шпионские игры / Spy Game (Тони Скотт / Tony Scott) [2001, Боевик, триллер, криминал, HDRip] Dub (Первый канал)

Ответить на тему
 
Автор
Сообщение

awk05 ®

Пол:

Стаж: 6 лет

Сообщений: 1352

Репутация: 275 [+] [-]

Откуда: Западная Украина Ривне

Пост 16-Янв-2014 20:15

[Цитировать] 

--Шпионские игры / Spy Game-- Страна: Великобритания, США
Жанр: Боевик, триллер, криминал
Продолжительность: 02:06:38
Год выпуска: 2001
Перевод: Профессиональный (дублированный) | Первый канал
Субтитры]: нет--Режиссёр: Тони Скотт / Tony Scott-В ролях: Роберт Редфорд, Брэд Питт, Катрин МакКормак, Стивен Диллэйн, Ларри Бриггман, Марианн Жан-Баптист, Мэттью Марш, Тодд Бойс, Майкл Пол Чан, Гаррик Хэгон--Описание: Это действительно игра. Самоотверженность идет рука об руку с предательством, неизбежность жертв с героизмом, чувство самосохранения с отчаянным риском. И эти люди не работают, они играют, манипулируя своими и чужими судьбами. И здесь нет места своим чувствам, желаниям и сентиментальности.
Все воспоминания Натана Муира об его работе с Томом Бишопом во Вьетнаме, ГДР и Бейруте посвящены именно этому. И если бы больше ничего в этом фильме не было, то это действительно был бы отличный шпионский триллер. Не какой-то там вариант бондиады, а вполне реалистичное и очень эмоциональное кино. Но все воспоминания вплетены в совершенно глупую историю, которая приключилась с Бишопом в Китае.
Там он попытался освободить из тюрьмы девушку, с которой познакомился в Бейруте и в которую был влюблен. Попытка оказалась неуспешной. Более того под угрозой срыва оказались торговые переговоры между США и Китаем. И руководство ЦРУ пытается решить эту проблему, точнее пытается найти в Бишопе что-то такое, что оправдало бы их бездействие. А Натан начинает свою собственную игру и пытается в последний день своей работы в ЦРУ нарушить все те принципы, которым следовал всю свою жизнь.--Качество: HDRip
Формат: AVI
Видео кодек: XviD
Аудио кодек: AC3
Видео: 704х280,16:9, 23,976 кадра/сек, 1417 Кбит/сек,0.270 Бит/(Пиксели*Кадры)
Аудио: 2 канала Front: L R, 48,0 КГц, 224 Кбит/сек-- --

MediaInfo

Общее
Полное имя : E:\Films\Shpionskie.Igry.2001.HDRip.All.Films.RG.avi
Формат : AVI
Формат/Информация : Audio Video Interleave
Размер файла : 1,46 Гбайт
Продолжительность : 2 ч. 6 м.
Общий поток : 1650 Кбит/сек
Программа кодирования : VirtualDubMod 1.5.10.2 (build 2540/release)
Библиотека кодирования : VirtualDubMod build 2540/release
Видео
Идентификатор : 0
Формат : MPEG-4 Visual
Профиль формата : Advanced Simple@L5
Параметр BVOP формата : 2
Параметр QPel формата : Нет
Параметр GMC формата : Без точки перехода
Параметр матрицы формата : Выборочная
Идентификатор кодека : XVID
Идентификатор кодека/Подсказка : XviD
Продолжительность : 2 ч. 6 м.
Битрейт : 1417 Кбит/сек
Ширина : 720 пикселей
Высота : 304 пикселя
Соотношение сторон : 2,35:1
Частота кадров : 23,976 кадра/сек
Цветовое пространство : YUV
Субдискретизация насыщенности : 4:2:0
Битовая глубина : 8 бит
Тип развёртки : Прогрессивная
Метод сжатия : С потерями
Бит/(Пиксели*Кадры) : 0.270
Размер потока : 1,25 Гбайт (86%)
Библиотека кодирования : XviD 65
Аудио
Идентификатор : 1
Формат : AC-3
Формат/Информация : Audio Coding 3
Расширение режима : CM (complete main)
Параметр Endianness формата : Big
Идентификатор кодека : 2000
Продолжительность : 2 ч. 6 м.
Вид битрейта : Постоянный
Битрейт : 224 Кбит/сек
Каналы : 2 канала
Расположение каналов : Front: L R
Частота : 48,0 КГц
Битовая глубина : 16 бит
Метод сжатия : С потерями
Размер потока : 203 Мбайт (14%)
Выравнивание : Разделение по промежуткам
Продолжительность промежутка : 42 мс. (1,00 видеокадр)
Время предзагрузки промежутка : 500 мс.

_________________
[Торрент-статистика]
[Профиль]  [ЛС] 
Показать сообщения:    
Ответить на тему

Текущее время: Сегодня 23:24

Часовой пояс: GMT + 4



Вы не можете начинать темы
Вы не можете отвечать на сообщения
Вы не можете редактировать свои сообщения
Вы не можете удалять свои сообщения
Вы не можете голосовать в опросах
Вы не можете прикреплять файлы к сообщениям
Вы не можете скачивать файлы