Взлом / The Takedown (Джо Чаппелль / Joe Chappelle) [2000, США, триллер, драма, криминал, DVDRip-AVC, RUS] MVO original eng

Ответить на тему
 
Автор
Сообщение

awk05 ®

Пол:

Стаж: 6 лет 5 месяцев

Сообщений: 1347

Репутация: 275 [+] [-]

Откуда: Западная Украина Ривне

Пост 14-Янв-2014 17:10

[Цитировать] 

--Взлом / The Takedown--"Зачем он это сделал?"... Чтобы знать, что он это может!-- Страна: США
Жанр: триллер, драма, криминал
Год выпуска: 2000
Продолжительность: 01:33:44
Перевод: Профессиональный (многоголосый закадровый)
Cубтитры: нет
Оригинальная аудиодорожка: английский--Режиссер: Джо Чаппелль / Joe Chappelle--В ролях: Скит Ульрих, Расселл Вонг, Анджела Фезерстоун, Донал Лог, Кристофер МакДональд, Мастер Пи, Том Беренджер, Джереми Систо, Аманда Пит, Этан Сапли--Описание: Гениальный хакер Митник уже два года скрывается от лучших оперативников ФБР, без труда проникая в самые защищенные базы данных.
Но теперь он обрел более опасного и хитрого врага, спеца по электронной безопасности Шимомуру, у которого ему удалось похитить уникальный вирус, способный уничтожить любой компьютер.
Митник по-прежнему неуловим для правительственных агентов, но сумеет ли он уйти от опытного Шимомуры, который объявил ему настоящую войну?-- --Качество видео: DVDRip-AVC
Формат видео: MKV
Видео кодек: AVC
Аудио кодек: AC3
Видео: 720x552 4:3 (1.37), 25 fps, ~1484 kbps avg, 0.149 bit/pixel
Аудио: #1 Русский, 48 kHz, AC3 Dolby Digital, 6 (L,R) ch, ~448.00 kbps avg
Аудио: #2 Английский, 48 kHz, AC3 Dolby Digital, 2/0 (L,R) ch, ~224.00 kbps avg--

Это интересно...

Кевин Дэвид Митник (англ. Kevin David Mitnick; родился 6 августа 1963) — знаковая фигура в сфере информационной безопасности, фактически уже является именем нарицательным. Был осуждён за незаконный доступ к информации (компьютеру), мошенничество и нанесение материального вреда.
При том, что, по мнению журналистов, считается отцом и родоначальником хакерства, фактически им не является, так как в основном при взломе использовал не машинный фактор, а человеческий.
Вначале со своей подружкой специализировался на взломе телефонных сетей AT&T, развлекаясь бесплатными международными звонками. Идею позаимствовал у своего одарённого приятеля. Затем, не без помощи того же приятеля, занялся компьютерными сетями.
Позднее Митник написал книгу, посвящённую социальной инженерии в сфере безопасности информационных технологий, и на сегодняшний день является специалистом по безопасности.
Кевин на данный момент написал две книги, первая из которых называлась «Искусство обмана», а вторая «Искусство вторжения». В каждой из книг описываются реальные (или близкие к реальным) события из жизни и деятельности социальных инженеров, хакеров, фрикеров, кракеров и других бойцов невидимого фронта. Книга «Искусство вторжения», это вторая книга Митника, в ней, в отличие от первой книги собраны истории реальных хакеров, некоторые истории переработаны чтобы скрыть информацию о написавшем, некоторые приведены без изменения.
В послесловии к книге «Искусство вторжения», Кевин обещает написать и опубликовать новую книгу «Неизвестная история Кевина Митника», в момент когда будут сняты некоторые правительственные запреты. Судя по тому, что это должно было произойти через два года после издания «Искусства вторжения», ждать осталось недолго.
Про деятельность Митника был снят художественный фильм «Взлом», который вызывает много споров относительно правдивости как образа Митника, так и его деятельности.

MediaInfo

General
Unique ID : 179000767549370036010793132170724575634 (0x86AA4B386356065E8761936FA2610992)
Complete name : E:\Films\The TAKEDOWN 720x552 DVDRip-AVC Gambit.mkv
Format : Matroska
Format version : Version 2
File size : 1.41 GiB
Duration : 1h 34mn
Overall bit rate : 2 153 Kbps
Encoded date : UTC 2010-08-23 17:31:40
Writing application : mkvmerge v3.3.0 ('Language') built on Mar 24 2010 14:59:24
Writing library : libebml v0.8.0 + libmatroska v0.9.0
Video
ID : 1
Format : AVC
Format/Info : Advanced Video Codec
Format profile : High@L4.0
Format settings, CABAC : Yes
Format settings, ReFrames : 16 frames
Codec ID : V_MPEG4/ISO/AVC
Duration : 1h 34mn
Bit rate : 1 484 Kbps
Width : 720 pixels
Height : 552 pixels
Display aspect ratio : 4:3
Frame rate mode : Constant
Frame rate : 25.000 fps
Color space : YUV
Chroma subsampling : 4:2:0
Bit depth : 8 bits
Scan type : Progressive
Bits/(Pixel*Frame) : 0.149
Stream size : 967 MiB (67%)
Writing library : x264 core 92 r1510 33d382a
Encoding settings : cabac=1 / ref=16 / deblock=1:-2:-1 / analyse=0x3:0x133 / me=tesa / subme=10 / psy=1 / psy_rd=1.00:0.20 / mixed_ref=1 / me_range=32 / chroma_me=1 / trellis=2 / 8x8dct=1 / cqm=0 / deadzone=21,11 / fast_pskip=1 / chroma_qp_offset=-3 / threads=6 / sliced_threads=0 / nr=0 / decimate=1 / interlaced=0 / constrained_intra=0 / bframes=4 / b_pyramid=2 / b_adapt=2 / b_bias=0 / direct=3 / wpredb=1 / wpredp=2 / keyint=250 / keyint_min=25 / scenecut=40 / intra_refresh=0 / rc_lookahead=60 / rc=2pass / mbtree=1 / bitrate=1484 / ratetol=1.0 / qcomp=0.60 / qpmin=10 / qpmax=51 / qpstep=4 / cplxblur=20.0 / qblur=0.5 / ip_ratio=1.40 / aq=1:1.00
Default : Yes
Forced : No
Audio #1
ID : 2
Format : AC-3
Format/Info : Audio Coding 3
Mode extension : CM (complete main)
Format settings, Endianness : Big
Codec ID : A_AC3
Duration : 1h 34mn
Bit rate mode : Constant
Bit rate : 448 Kbps
Channel count : 6 channels
Channel positions : Front: L C R, Side: L R, LFE
Sampling rate : 48.0 KHz
Bit depth : 16 bits
Compression mode : Lossy
Stream size : 301 MiB (21%)
Default : Yes
Forced : No
Audio #2
ID : 3
Format : AC-3
Format/Info : Audio Coding 3
Mode extension : CM (complete main)
Format settings, Endianness : Big
Codec ID : A_AC3
Duration : 1h 34mn
Bit rate mode : Constant
Bit rate : 224 Kbps
Channel count : 2 channels
Channel positions : Front: L R
Sampling rate : 48.0 KHz
Bit depth : 16 bits
Compression mode : Lossy
Stream size : 151 MiB (10%)
Default : No
Forced : No

_________________
[Торрент-статистика]
[Профиль]  [ЛС] 
Показать сообщения:    
Ответить на тему

Текущее время: Сегодня 20:26

Часовой пояс: GMT + 4



Вы не можете начинать темы
Вы не можете отвечать на сообщения
Вы не можете редактировать свои сообщения
Вы не можете удалять свои сообщения
Вы не можете голосовать в опросах
Вы не можете прикреплять файлы к сообщениям
Вы не можете скачивать файлы