Горец 4: Конец игры / Highlander: Endgame (Дуглас Арниокоски / Douglas Aarniokoski) [2000 г., научная фантастика, приключения, фэнтези, DVDRip] [Продюсерская версия / Producer's Cut] DUB + DVO (SDI Media / TV1000Action) + VO + Original + Sub (En

Ответить на тему
 
Автор
Сообщение

awk05 ®

Пол:

Стаж: 6 лет 6 месяцев

Сообщений: 1347

Репутация: 275 [+] [-]

Откуда: Западная Украина Ривне

Пост 07-Янв-2014 23:13

[Цитировать] 

--Горец 4: Конец игры/Highlander: Endgame-- --Страна: США Davis-Panzer Productions, Dimension Films
Жанр: научная фантастика, приключения, фэнтези
Год выпуска: 2000
Продолжительность: 01:40:14
Перевод #1: Профессиональный (полное дублирование + двухголоска для непереведенных мест)
Перевод #2: Профессиональный (двухголосый закадровый: SDI Media)
Перевод #3: Одноголосый закадровый (предположительно Гранкин)
Русские субтитры: есть (для непереведенной сцены продолжительностью ~1м15с) (.srt)
Английские субтитры: есть (.sub)
Оригинальная аудиодорожка: английский--Режиссер: Дуглас Арниокоски / Douglas Aarniokoski--В ролях: Эдриан Пол /Adrian Paul/, Кристофер Ламберт /Christopher Lambert/, Брюс Пэйн /Bruce Payne/, Лиза Барбаскиа /Lisa Barbuscia/, Питер Уингфилд /Peter Wingfield/, Джим Бирнс /Jim Byrnes/, Донни Йен /Donnie Yen/--Описание: Прошедшие сквозь пространство и время двое бессмертных: Коннор и Дункан Маклауды сталкиваются с общим врагом — Джейкобом Келлом, самым могущественным из оставшихся воинов.
И теперь, когда впервые нарушены незыблемые правила, время подводит жестокий итог: в схватке бессмертных должен остаться только один!-- --Качество: DVDRip
Формат: AVI
Видео кодек: XviD
Аудио кодек: MP3
Видео: 720x304 (2.35:1), 29.970 fps, XviD MPEG-4 ~1513 kbps avg, 0.231 bit/pixel
Аудио #1: 48 kHz, MPEG Layer 3, 2 ch, ~128.00 kbps avg (дубляж)
Аудио #2: 48 kHz, MPEG Layer 3, 2 ch, ~128.00 kbps avg (SDI Media)
Аудио #3: 48 kHz, MPEG Layer 3, 2 ch, ~128.00 kbps avg (VO)
Аудио #4: 48 kHz, MPEG Layer 3, 2 ch, ~128.00 kbps avg (оригинал)-- --

MediaInfo

General
Complete name : E:\Films\Highlander - Endgame [Producer's Cut]\Highlander - Endgame [DUB+DVO+VO+ENG].avi
Format : AVI
Format/Info : Audio Video Interleave
File size : 1.44 GiB
Duration : 1h 40mn
Overall bit rate : 2 054 Kbps
Writing application : VirtualDubMod 1.5.10.2 (build 2540/release)
Writing library : VirtualDubMod build 2540/release
Copyright : © 2009 FilmStore Group
IRIP : FilmStore Group
Video
ID : 0
Format : MPEG-4 Visual
Format profile : Advanced Simple@L5
Format settings, BVOP : 2
Format settings, QPel : No
Format settings, GMC : No warppoints
Format settings, Matrix : Custom
Muxing mode : Packed bitstream
Codec ID : XVID
Codec ID/Hint : XviD
Duration : 1h 40mn
Bit rate : 1 513 Kbps
Width : 720 pixels
Height : 304 pixels
Display aspect ratio : 2.35:1
Frame rate : 29.970 fps
Color space : YUV
Chroma subsampling : 4:2:0
Bit depth : 8 bits
Scan type : Progressive
Compression mode : Lossy
Bits/(Pixel*Frame) : 0.231
Stream size : 1.06 GiB (74%)
Writing library : XviD 1.2.1 (UTC 2008-12-04)
Audio #1
ID : 1
Format : MPEG Audio
Format version : Version 1
Format profile : Layer 3
Mode : Joint stereo
Mode extension : MS Stereo
Codec ID : 55
Codec ID/Hint : MP3
Duration : 1h 40mn
Bit rate mode : Constant
Bit rate : 128 Kbps
Channel count : 2 channels
Sampling rate : 48.0 KHz
Compression mode : Lossy
Stream size : 91.8 MiB (6%)
Alignment : Aligned on interleaves
Interleave, duration : 33 ms (1.00 video frame)
Interleave, preload duration : 504 ms
Audio #2
ID : 2
Format : MPEG Audio
Format version : Version 1
Format profile : Layer 3
Mode : Joint stereo
Mode extension : MS Stereo
Codec ID : 55
Codec ID/Hint : MP3
Duration : 1h 40mn
Bit rate mode : Constant
Bit rate : 128 Kbps
Channel count : 2 channels
Sampling rate : 48.0 KHz
Compression mode : Lossy
Stream size : 91.8 MiB (6%)
Alignment : Aligned on interleaves
Interleave, duration : 33 ms (1.00 video frame)
Interleave, preload duration : 504 ms
Audio #3
ID : 3
Format : MPEG Audio
Format version : Version 1
Format profile : Layer 3
Mode : Joint stereo
Mode extension : MS Stereo
Codec ID : 55
Codec ID/Hint : MP3
Duration : 1h 40mn
Bit rate mode : Constant
Bit rate : 128 Kbps
Channel count : 2 channels
Sampling rate : 48.0 KHz
Compression mode : Lossy
Stream size : 91.8 MiB (6%)
Alignment : Aligned on interleaves
Interleave, duration : 33 ms (1.00 video frame)
Interleave, preload duration : 504 ms
Audio #4
ID : 4
Format : MPEG Audio
Format version : Version 1
Format profile : Layer 3
Mode : Joint stereo
Mode extension : MS Stereo
Codec ID : 55
Codec ID/Hint : MP3
Duration : 1h 40mn
Bit rate mode : Constant
Bit rate : 128 Kbps
Channel count : 2 channels
Sampling rate : 48.0 KHz
Compression mode : Lossy
Stream size : 91.8 MiB (6%)
Alignment : Aligned on interleaves
Interleave, duration : 33 ms (1.00 video frame)
Interleave, preload duration : 504 ms

_________________
[Торрент-статистика]
[Профиль]  [ЛС] 
Показать сообщения:    
Ответить на тему

Текущее время: Сегодня 10:03

Часовой пояс: GMT + 4



Вы не можете начинать темы
Вы не можете отвечать на сообщения
Вы не можете редактировать свои сообщения
Вы не можете удалять свои сообщения
Вы не можете голосовать в опросах
Вы не можете прикреплять файлы к сообщениям
Вы не можете скачивать файлы