Ангел мести / Avenging Angelo (Мартин Бёрк / Martyn Burke) [2002, боевик, комедия, криминальный фильм, DVDRip] DUB

Ответить на тему
 
Автор
Сообщение

awk05 ®

Пол:

Стаж: 6 лет 5 месяцев

Сообщений: 1347

Репутация: 275 [+] [-]

Откуда: Западная Украина Ривне

Пост 07-Янв-2014 17:55

[Цитировать] 

--Ангел мести / Avenging Angelo--"Нет защиты надежнее, чем влюбленный телохранитель"-- Страна: США, Франция, Швейцария
Жанр: боевик, комедия, криминальный фильм
Год выпуска: 2002
Продолжительность: 01:33:37
Перевод: Профессиональный (дублированный)
Cубтитры: нет--Режиссер: Мартин Бёрк / Martyn Burke--В ролях: Сильвестр Сталлоне, Мэдлин Стоу, Энтони Куинн, Рауль Бова, Гарри Ван Горкум, Билли Гарделл, Джордж Тулиатос, Анджело Селеста, Эзра Перлман, Кэрин Моффэт--Описание: Анджело Аллигьери был одним из самых авторитетных и уважаемых боссов нью-йоркской мафии, а Фрэнки Делано - его преданным помощником и телохранителем. Сам Фрэнки называл себя "наблюдателем", так как по просьбе Аллигьери должен был незаметно наблюдать за его дочерью Дженнифер. Когда-то, давным-давно, во время жестоких гангстерских разборок "крестный отец", решив уберечь от всего этого свою маленькую дочку, отдал ее на воспитание в хорошее семейство. Дженнифер выросла в атмосфере любви и ласки, не зная забот и печалей: настоящий отец, о существовании которого она даже не подозревала, щедро одаривал ее приемных родителей, чтобы они обеспечивали ей достойную жизнь. И все эти годы за ней присматривал верный Фрэнки, следивший, чтобы с Дженнифер не случилось ничего плохого, но никогда не показывавшийся ей на глаза. Прошли годы. Девочка стала красивой и богатой замужней женщиной и наконец узнала, чья она дочь, причем произошло это при весьма прискорбных обстоятельствах. Конкуренты-мафиозники все-таки достали престарелого Анджело Аллигьери. Анджело встретил убийцу хладнокровно, как будто давно ждал его. Коря себя за то, что не смог предотвратить гибели хозяина, которого он любил как родного отца, Фрэнки решил навестить его дочь, рассказать ей всю правду и защитить ее от врагов - ведь те, кто убил Анджело, наверняка попытаются добраться и до нее. Пока что они ничего не знают про Дженнифер, но где гарантия, что так будет продолжаться вечно?..-- --Качество видео: DVDRip
Формат видео: AVI
Видео кодек: XviD
Аудио кодек: AC3
Видео: 704x304, 25.000 fps, ~1682 kbps avg, 0.314 bit/pixel
Аудио: 6 channels, 48 kHz, Dolby Digital, 3/2 (L,C,R,l,r) + LFE ch, ~448 kbps--

MediaInfo

General
Complete name : E:\Films\Avenging.Angelo.2002.DVDRip.avi
Format : AVI
Format/Info : Audio Video Interleave
File size : 1.46 GiB
Duration : 1h 33mn
Overall bit rate : 2 227 Kbps
Writing application : VirtualDubMod 1.5.10.2 (build 2540/release)
Writing library : VirtualDubMod build 2540/release
Video
ID : 0
Format : MPEG-4 Visual
Format profile : Advanced Simple@L5
Format settings, BVOP : 2
Format settings, QPel : No
Format settings, GMC : No warppoints
Format settings, Matrix : Custom
Codec ID : XVID
Codec ID/Hint : XviD
Duration : 1h 33mn
Bit rate : 1 682 Kbps
Width : 704 pixels
Height : 304 pixels
Display aspect ratio : 2.35:1
Frame rate : 25.000 fps
Color space : YUV
Chroma subsampling : 4:2:0
Bit depth : 8 bits
Scan type : Progressive
Compression mode : Lossy
Bits/(Pixel*Frame) : 0.314
Stream size : 1.10 GiB (76%)
Writing library : XviD 1.2.1 (UTC 2008-12-04)
Audio
ID : 1
Format : AC-3
Format/Info : Audio Coding 3
Mode extension : CM (complete main)
Format settings, Endianness : Big
Codec ID : 2000
Duration : 1h 33mn
Bit rate mode : Constant
Bit rate : 448 Kbps
Channel count : 6 channels
Channel positions : Front: L C R, Side: L R, LFE
Sampling rate : 48.0 KHz
Bit depth : 16 bits
Compression mode : Lossy
Stream size : 300 MiB (20%)
Alignment : Split accross interleaves

_________________
[Торрент-статистика]
[Профиль]  [ЛС] 
Показать сообщения:    
Ответить на тему

Текущее время: Сегодня 19:16

Часовой пояс: GMT + 4



Вы не можете начинать темы
Вы не можете отвечать на сообщения
Вы не можете редактировать свои сообщения
Вы не можете удалять свои сообщения
Вы не можете голосовать в опросах
Вы не можете прикреплять файлы к сообщениям
Вы не можете скачивать файлы