Кристина / Christine (Джон Карпентер) [1983 г., ужасы, триллер, BDRip]

Ответить на тему
 
Автор
Сообщение

3232fox ®

Пол:

Стаж: 7 лет 8 месяцев

Сообщений: 586

Репутация: 426 [+] [-]

Откуда: Крым,Россия

Пост 22-Ноя-2013 01:42

[Цитировать] 

-Кристина / Christine--Год выпуска: 1983
Страна: США
Жанр: ужасы, триллер
Продолжительность: ~01:50:01
Перевод: Профессиональный (многоголосый, закадровый)
Субтитры: Русские, английские (внешние, srt*)--Режиссер: Джон Карпентер--В ролях: Кит Гордон, Мальколм Дэнар, Джон Стокуэлл, Гарри Дин Стэнтон, Роберт Проски, Робертс Блоссом, Александра Пол, Кристин Белфорд, Дэвид Спилберг--Описание: Молодой семнадцатилетний парень по имени Арни Каннингэм становится слугой Кристины. Эта особа беспощадна: от своих соперниц она безжалостно избавляется, тех, кто рискнет выйти из ее подчинения, ждет такая же участь. Ее формы совершенны, от Кристины просто невозможно оторвать глаз. Кристина – это автомобиль Плимут 1958 года выпуска. Все, кто когда–либо владел этим роскошным автомобилем, погибли. Такая же участь уготовлена и Арни, если он не сможет найти способ перехитрить кровожадную стальную красавицу.-- --Тип релиза: BDRip
Контейнер: AVI
Видео кодек: XviD
Аудио кодек: AC3 (Dolby Digital)
Видео: 720x304 (2.37:1), 23.976 fps, XviD build 65 ~1875 kbps avg, 0.36 bit/pixel
Аудио: Аудио #1: 48 kHz, AC3, 3/2 (L,C,R,l,r) + LFE ch, ~384.00 kbps avg (RUS, MVO) Видеосервис
Аудио #2: 48 kHz, AC3, 2/0 (L,R) ch, ~192.00 kbps avg (RUS, DVO) Киномания
Аудио #3: 48 kHz, AC3, 3/2 (L,C,R,l,r) + LFE ch, ~384.00 kbps avg (ENG)--

Скриншоты

MI

G:\видео\Kristina.1983.DUAL.BDRip.XviD.AC3.-HQCLUB\Kristina.1983.DUAL.BDRip.XviD.AC3.-HQCLUB.avi
General
Complete name : G:\видео\Kristina.1983.DUAL.BDRip.XviD.AC3.-HQCLUB\Kristina.1983.DUAL.BDRip.XviD.AC3.-HQCLUB.avi
Format : AVI
Format/Info : Audio Video Interleave
Format profile : OpenDML
File size : 2.18 GiB
Duration : 22mn 46s
Overall bit rate : 13.7 Mbps
Movie name : Кристина / Christine (1983) BDRip
Director : MOSFET
Genre : ужасы, триллер, драма
Writing application : VirtualDubMod 1.5.10.2 (build 2542/release)
Copyright : http://hqclub.net/
Comment : 31.03.13
Video #0
ID : 0
Format : MPEG-4 Visual
Format profile : Advanced Simple@L5
Format settings, BVOP : Yes
Format settings, QPel : No
Format settings, GMC : No warppoints
Format settings, Matrix : Custom
Codec ID : XVID
Codec ID/Hint : XviD
Duration : 22mn 46s
Bit rate : 11101602728
Width : 720 pixels
Height : 304 pixels
Display aspect ratio : 2.35:1
Frame rate : 23.976 fps
Resolution : 8 bits
Colorimetry : 4:2:0
Scan type : Progressive
Bits/(Pixel*Frame) : 2115.450
Stream size : 1.72 ?iB
Writing library : XviD 65
Audio #1
ID : 1
Format : AC-3
Format/Info : Audio Coding 3
Codec ID : 2000
Duration : 22mn 46s
Bit rate mode : Constant
Bit rate : 384 Kbps
Channel(s) : 6 channels
Sampling rate : 48.0 KHz
Stream size : 62.6 MiB (3%)
Alignment : Aligned on interleaves
Audio #2
ID : 2
Format : AC-3
Format/Info : Audio Coding 3
Codec ID : 2000
Duration : 22mn 46s
Bit rate mode : Constant
Bit rate : 192 Kbps
Channel(s) : 2 channels
Sampling rate : 48.0 KHz
Stream size : 31.3 MiB (1%)
Alignment : Aligned on interleaves
Audio #3
ID : 3
Format : AC-3
Format/Info : Audio Coding 3
Codec ID : 2000
Duration : 22mn 46s
Bit rate mode : Constant
Bit rate : 384 Kbps
Channel(s) : 6 channels
Sampling rate : 48.0 KHz
Stream size : 62.6 MiB (3%)
Alignment : Aligned on interleaves
[Торрент-статистика]
[Профиль]  [ЛС] 
Показать сообщения:    
Ответить на тему

Текущее время: Сегодня 17:13

Часовой пояс: GMT + 4



Вы не можете начинать темы
Вы не можете отвечать на сообщения
Вы не можете редактировать свои сообщения
Вы не можете удалять свои сообщения
Вы не можете голосовать в опросах
Вы не можете прикреплять файлы к сообщениям
Вы не можете скачивать файлы