Зловещие мертвецы 2 / Evil dead 2 (Сэм Рэйми) [1987 г., ужасы, комедия, BDRip-AVC]

Ответить на тему
 
Автор
Сообщение

3232fox ®

Пол:

Стаж: 7 лет 8 месяцев

Сообщений: 586

Репутация: 426 [+] [-]

Откуда: Крым,Россия

Пост 20-Ноя-2013 00:30

[Цитировать] 

-Зловещие мертвецы 2 / Evil dead 2--Год выпуска: 1987
Страна: США
Жанр: ужасы, комедия
Продолжительность: ~01:24:13
Перевод: Профессиональный (многоголосый, закадровый)--Режиссер: Сэм Рэйми--В ролях: Брюс Кэмпбелл, Сара Берри, Дэн Хикс, Кэсси ДеПайва, Тед Рейми, Дениз Бикслер, Ричард Домайер, Джон Пикс, Лу Хэнкок, Сноуи Уинтерс--Описание: Парень Эш и его любимая девушка Линда отправляются в тихий лесной домик, рассчитывая вместе приятно провести время. Настроенные на романтический отдых молодые люди обнаруживают в доме старинную книгу мертвых и магнитофон с вставленной кассетой. Эш и Линда решают прослушать запись на пленке, не подозревая, что воспроизводят страшные колдовские заклинания, которые пробуждают зловещих мертвецов. Теперь у пары очень мало шансов выжить, ведь ужасные мертвые духи стремятся вселиться в человеческую плоть!-- --Тип релиза: BDRip-AVC
Контейнер: MKV
Видео кодек: H264 (AVC)
Аудио кодек: AC3 (Dolby Digital)
Видео: 1152x624 (1.85:1), 23.976 fps, ~3331 kbps, 0.193 bit/pixel
Аудио: Russian, Audio Coding 3, 48 kHz, DD 5.1 ch, CBR 384 kbps--

Скриншоты

MI

G:\видео\evil.dead.2.mkv
General
Complete name : G:\видео\evil.dead.2.mkv
Format : Matroska
File size : 2.19 GiB
Duration : 1h 24mn
Overall bit rate : 3 717 Kbps
Encoded date : UTC 2011-08-16 18:22:51
Writing application : mkvmerge v4.8.0 ('I Got The...') сборка от May 24 2011 03:12:58
Writing library : libebml v1.2.0 + libmatroska v1.1.0
Video #1
ID : 1
Format : AVC
Format/Info : Advanced Video Codec
Format profile : High@L4.1
Format settings, CABAC : Yes
Format settings, ReFrames : 9 frames
Muxing mode : Container profile=Unknown@4.1
Codec ID : V_MPEG4/ISO/AVC
Duration : 1h 24mn
Bit rate : 3 259 Kbps
Nominal bit rate : 3 331 Kbps
Width : 1 152 pixels
Height : 624 pixels
Display aspect ratio : 16:9
Frame rate : 23.976 fps
Resolution : 8 bits
Colorimetry : 4:2:0
Scan type : Progressive
Bits/(Pixel*Frame) : 0.189
Stream size : 1.92 GiB (88%)
Title : Evil Dead II
Writing library : x264 core 115 r1995 c1e60b9
Encoding settings : cabac=1 / ref=9 / deblock=1:-1:-1 / analyse=0x3:0x113 / me=umh / subme=10 / psy=1 / psy_rd=1.00:0.15 / mixed_ref=1 / me_range=32 / chroma_me=1 / trellis=2 / 8x8dct=1 / cqm=0 / deadzone=21,11 / fast_pskip=0 / chroma_qp_offset=-3 / threads=2 / sliced_threads=0 / nr=0 / decimate=1 / interlaced=0 / bluray_compat=0 / constrained_intra=0 / bframes=9 / b_pyramid=2 / b_adapt=2 / b_bias=0 / direct=3 / weightb=1 / open_gop=0 / weightp=2 / keyint=250 / keyint_min=23 / scenecut=40 / intra_refresh=0 / rc_lookahead=40 / rc=2pass / mbtree=1 / bitrate=3331 / ratetol=1.0 / qcomp=0.70 / qpmin=10 / qpmax=51 / qpstep=4 / cplxblur=20.0 / qblur=0.5 / ip_ratio=1.40 / aq=2:1.00
Audio #2
ID : 2
Format : AC-3
Format/Info : Audio Coding 3
Format_Settings_ModeExtension : CM (complete main)
Codec ID : A_AC3
Duration : 1h 24mn
Bit rate mode : Constant
Bit rate : 384 Kbps
Channel(s) : 6 channels
Channel positions : Front: L C R, Side: L R, LFE
Sampling rate : 48.0 KHz
Stream size : 231 MiB (10%)
Title : MVO (Киномания)
Language : Russian
[Торрент-статистика]
[Профиль]  [ЛС] 
Показать сообщения:    
Ответить на тему

Текущее время: Сегодня 15:31

Часовой пояс: GMT + 4



Вы не можете начинать темы
Вы не можете отвечать на сообщения
Вы не можете редактировать свои сообщения
Вы не можете удалять свои сообщения
Вы не можете голосовать в опросах
Вы не можете прикреплять файлы к сообщениям
Вы не можете скачивать файлы