Красотка / Pretty woman (1990) BDRip

Ответить на тему
 
Автор
Сообщение

prim ®

Стаж: 8 лет 7 месяцев

Сообщений: 92

Репутация: 23 [+] [-]

Пост 05-Мар-2013 12:15

[Цитировать] 

Красотка / Pretty woman (1990) BDRip-«Она вошла в его жизнь с улицы и украла его сердце.»- Русское название: Красотка
Оригинальное название: Pretty woman
Год выпуска: 1990
Жанр: Комедия, Мелодрама
Описание фильма:
Вивиан Вард – обычная уличная девица: безвкусно одетая, с дурными манерами и в жутких париках. Она зарабатывает себе на жизнь на панели, причем не от безысходности, а по призванию. Случайная прихоть финансового магната Эдварда Льюиса, решившего купить себе на неделю профессионалку для оказания эскорт – услуг (ходить на светские вечеринки, приемы и т.д.), помогает ей увидеть другую жизнь – полную красоты, блеска, изысканных удовольствий и лжи. Но срок действия договора истекает, а Вивиан влюбляется в Эдварда. Трудно сказать, как сложилась бы ее судьба, не окажись Эдвард таким же чувствительным.
Режиссер: Гэрри Маршалл
Актеры: Ричард Гир, Джулия Робертс, Ральф Беллами, Джейсон Александр, Лора Сан Джакомо, Алекс Хайд-Вайт, Эми Ясбек, Элинор Донахью, Эктор Элисондо, Джудит Болдуин
Продолжительность: 01:59:37
Перевод: Дубляж + Профессиональный (многоголосый закадровый) - (Украинский - Интер)
Дата мировой премьеры: 23 марта 1990
Дата выхода DVD релиза: 26 февраля 2009
Видеокодек: Xvid
Битрейт видео: ~1334 kb/s
Размер кадра: 720х384
Качество видео: BDRip
Аудио#1: 48 kHz, AC3 2.0, 192.00 kbps / Дубляж (Русский)
Аудио#2: 48 kHz, AC3 2.0, 192.00 kbps / Профессиональный (многоголосый закадровый) - (Украинский - Интер)

MI

Общее
Полное имя : E:\Фильмы М\Pretty woman (1990) BDRip (Rus. Ukr).avi
Формат : AVI
Формат/Информация : Audio Video Interleave
Размер файла : 1,45 Гбайт
Продолжительность : 1 ч. 59 м.
Общий поток : 1732 Кбит/сек
Программа кодирования : VirtualDubModRus 1.5.10.2 (build 2542/release)
Библиотека кодирования : VirtualDubMod build 2542/release
Видео
Идентификатор : 0
Формат : MPEG-4 Visual
Профиль формата : Advanced Simple@L5
Параметр BVOP формата : 1
Параметр QPel формата : Нет
Параметр GMC формата : Без точки перехода
Параметр матрицы формата : Выборочная
Режим смешивания : Сжатый битовый поток
Идентификатор кодека : XVID
Идентификатор кодека/Подсказка : XviD
Продолжительность : 1 ч. 59 м.
Битрейт : 1334 Кбит/сек
Ширина : 720 пикселей
Высота : 384 пикселя
Соотношение сторон : 1,85:1
Частота кадров : 23,976 кадра/сек
Цветовое пространство : YUV
Субдискретизация насыщенности : 4:2:0
Битовая глубина : 8 бит
Тип развёртки : Прогрессивная
Метод сжатия : С потерями
Бит/(Пиксели*Кадры) : 0.201
Размер потока : 1,11 Гбайт (77%)
Библиотека кодирования : XviD 65
Аудио #1
Идентификатор : 1
Формат : AC-3
Формат/Информация : Audio Coding 3
Расширение режима : CM (complete main)
Параметр Endianness формата : Big
Идентификатор кодека : 2000
Продолжительность : 1 ч. 59 м.
Вид битрейта : Постоянный
Битрейт : 192 Кбит/сек
Каналы : 2 канала
Расположение каналов : Front: L R
Частота : 48,0 КГц
Битовая глубина : 16 бит
Метод сжатия : С потерями
Размер потока : 164 Мбайт (11%)
Выравнивание : Разделение по промежуткам
Продолжительность промежутка : 42 мс. (1,00 видеокадр)
Время предзагрузки промежутка : 500 мс.
Заголовок : Дубляж (Русский)
Аудио #2
Идентификатор : 2
Формат : AC-3
Формат/Информация : Audio Coding 3
Расширение режима : CM (complete main)
Параметр Endianness формата : Big
Идентификатор кодека : 2000
Продолжительность : 1 ч. 59 м.
Вид битрейта : Постоянный
Битрейт : 192 Кбит/сек
Каналы : 2 канала
Расположение каналов : Front: L R
Частота : 48,0 КГц
Битовая глубина : 16 бит
Метод сжатия : С потерями
Размер потока : 164 Мбайт (11%)
Выравнивание : Разделение по промежуткам
Продолжительность промежутка : 42 мс. (1,00 видеокадр)
Время предзагрузки промежутка : 500 мс.
Заголовок : Профессиональный (многоголосый закадровый) - (Украинский - Интер)
Скриншоты:
[Торрент-статистика]
[Профиль]  [ЛС] 
Показать сообщения:    
Ответить на тему

Текущее время: Сегодня 10:33

Часовой пояс: GMT + 4



Вы не можете начинать темы
Вы не можете отвечать на сообщения
Вы не можете редактировать свои сообщения
Вы не можете удалять свои сообщения
Вы не можете голосовать в опросах
Вы не можете прикреплять файлы к сообщениям
Вы не можете скачивать файлы