Голый пистолет / The Naked Gun: From the Files of Police Squad! (Дэвид Цукер) [1988, боевик, мелодрама, комедия, HQRip]

Ответить на тему
 
Автор
Сообщение

diim ®

Пол:

Стаж: 5 лет 9 месяцев

Сообщений: 1038

Репутация: 112 [+] [-]

Пост 26-Окт-2012 12:41

[Цитировать] 

Голый пистолет
The Naked Gun: From the Files of Police Squad!
-«You've read the ad, now see the movie!»-Год выпуска | 1988
Страна | США
Жанр | боевик ∙ мелодрама ∙ комедия ∙ криминал
Продолжительность | 01:24:59
Перевод | Профессиональный (многоголосый, закадровый) ∙ Авторский (Пучков Дмитрий /Goblin/) ∙ Авторский (Михалев Алексей)
-
Режиссер | Дэвид Цукер
Сценарий | Джерри Цукер ∙ Джим Абрахамс ∙ Дэвид Цукер ∙ Пэт Профт
Продюсер | Роберт К. Уайсс ∙ Джим Абрахамс ∙ Кевин Марси ∙ Джон Д. Шофилд ∙ Дэвид Цукер
Оператор | Роберт М. Стивенс
Композитор | Айра Ньюборн
В ролях | Лесли Нильсен (Frank Drebin) ∙ Присцилла Пресли (Jane Spencer) ∙ Рикардо Монтальбан (Vincent Ludwig) ∙ Джордж Кеннеди (Ed Hocken) ∙ О. Дж. Симпсон (Nordberg) ∙ Сьюзэн Бьюбиан (Mrs. Nordberg) ∙ Нэнси Маршанд (Mayor) ∙ Рэй Бирк (Pahpshmir) ∙ Жанетт Чарльз (Queen Elizabeth II) ∙ Эд Уильямс (Ted Olsen) ∙ Тайни Рон (Al) ∙ Вейрд Эл Янкович ('Weird Al') и др.
-
Описание | Самый некомпетентный полицейский, лейтенант Фрэнк Дребин, должен в одиночку противостоять международному заговору, цель которого - погубить королеву Елизавету II. Ко всеобщему удивлению и радости, глупейший из глупых лейтенант Дребин разберётся со всеми врагами Её Величества так лихо, как не снилось и знаменитому агенту 007.
-
kinopoisk.ru | 7.299 (15 147)
-
Сборы в США | $78 756 177
Мировая премьера | 2 декабря 1988
Релиз на DVD | 16 февраля 2010 ∙ «Юниверсал Пикчерс Рус»
-

Знаете ли Вы, что...

  • Когда Джейн разбирает холодильник Фрэнка, она достаёт упаковку с китайской едой. На упаковке срок изготовления - 1982 год. Именно в этот году в США вышел сериал «Полицейский отряд!», по мотивам которого и снят фильм.
  • Несмотря на то, что фильм снимался по мотивам сериала, из первоначальных актеров остались только Лесли Нильсен и Эд Уильямс (играет криминалиста Тэда), причём Тэд не показывается обучающим детей, как в сериале.
  • Режиссер Дэвид Цукер упоминает в комментариях к фильму, что киностудия настаивала на привлечении какого-нибудь лауреата премии Оскар. Им стал Джордж Кеннеди, который сам активно предлагал свою помощь, так как очень жалел, что не попал в фильм «Аэроплан» (1980) тех же продюсеров.
Качество | HQRip (исходник | BDRip 1080p)
Контейнер | AVI
Видео | XviD ∙ 720x400 (16:9) ∙ 2299 kbps ∙ 23.976 fps ∙ 0.333 bit/pixel
Аудио #1 | AC3 ∙ 448 kbps ∙ CBR ∙ 6 channels ∙ 16 bit /MVO/
Аудио #2 | AC3 ∙ 448 kbps ∙ CBR ∙ 6 channels ∙ 16 bit /AVO/
Аудио #3 | AC3 ∙ 448 kbps ∙ CBR ∙ 6 channels ∙ 16 bit /AVO/

MediaInfo

General
Count : 257
Count of stream of this kind : 1
Kind of stream : General
Kind of stream : General
Stream identifier : 0
Count of video streams : 1
Count of audio streams : 3
Video_Format_List : MPEG-4 Visual
Video_Format_WithHint_List : MPEG-4 Visual (XviD)
Codecs Video : XviD
Audio_Format_List : AC-3 / AC-3 / AC-3
Audio_Format_WithHint_List : AC-3 / AC-3 / AC-3
Audio codecs : AC3 / AC3 / AC3
Audio_Language_List : / /
Complete name : G:\releases\Naked.Gun.1988.HQRip.by.nimphus[R.G.KiNOvNiNO].avi
Folder name : G:\releases
File name : Naked.Gun.1988.HQRip.by.nimphus[R.G.KiNOvNiNO]
File extension : avi
Format : AVI
Format : AVI
Format/Info : Audio Video Interleave
Format/Extensions usually used : avi
Format profile : OpenDML
Interleaved : Yes
Codec : AVI
Codec : AVI
Codec/Info : Audio Video Interleave
Codec/Extensions usually used : avi
File size : 2337839104
File size : 2.18 GiB
File size : 2 GiB
File size : 2.2 GiB
File size : 2.18 GiB
File size : 2.177 GiB
Duration : 5099895
Duration : 1h 24mn
Duration : 1h 24mn 59s 895ms
Duration : 1h 24mn
Duration : 01:24:59.895
Overall bit rate : 3667274
Overall bit rate : 3 667 Kbps
Stream size : 15145665
Stream size : 14.4 MiB (1%)
Stream size : 14 MiB
Stream size : 14 MiB
Stream size : 14.4 MiB
Stream size : 14.44 MiB
Stream size : 14.4 MiB (1%)
Proportion of this stream : 0.00648
File creation date : UTC 2012-10-26 04:45:33.925
File creation date (local) : 2012-10-26 08:45:33.925
File last modification date : UTC 2012-10-26 04:47:44.107
File last modification date (loc : 2012-10-26 08:47:44.107
Writing application : VirtualDubMod 1.5.10.2 (build 2540/release)
Writing library : VirtualDubMod build 2540/release
Writing library : VirtualDubMod build 2540/release
Video
Count : 144
Count of stream of this kind : 1
Kind of stream : Video
Kind of stream : Video
Stream identifier : 0
ID : 0
ID : 0
Format : MPEG-4 Visual
Format profile : Advanced Simple@L5
Format settings : BVOP
Format settings, BVOP : Yes
Format settings, BVOP : Yes
Format settings, QPel : No
Format settings, QPel : No
Format settings, GMC : 0
Format settings, GMC : No warppoints
Format settings, Matrix : Default (H.263)
Format settings, Matrix : Default (H.263)
Codec ID : XVID
Codec ID/Hint : XviD
Codec ID/Url : http://mediaarea.net/XVID
Codec : XVID
Codec : XviD
Codec/Family : MPEG-4V
Codec/Info : XviD project
Codec/Url : http://www.xvid.org/Downloads.15.0.html
Codec/CC : XVID
Codec profile : Advanced Simple@L5
Codec settings : BVOP
Codec settings, Packet bitstream : No
Codec settings, BVOP : Yes
Codec settings, QPel : No
Codec settings, GMC : 0
Codec settings, GMC : No warppoints
Codec settings, Matrix : Default (H.263)
Duration : 5099891
Duration : 1h 24mn
Duration : 1h 24mn 59s 891ms
Duration : 1h 24mn
Duration : 01:24:59.891
Bit rate : 2299517
Bit rate : 2 300 Kbps
Width : 720
Width : 720 pixels
Height : 400
Height : 400 pixels
Pixel aspect ratio : 1.000
Display aspect ratio : 1.800
Display aspect ratio : 16/9
Frame rate : 23.976
Frame rate : 23.976 fps
Frame count : 122275
Resolution : 24
Resolution : 24 bits
Colorimetry : 4:2:0
Scan type : Progressive
Scan type : Progressive
Interlacement : PPF
Interlacement : Progressive
Bits/(Pixel*Frame) : 0.333
Delay : 0
Stream size : 1465911145
Stream size : 1.37 GiB (63%)
Stream size : 1 GiB
Stream size : 1.4 GiB
Stream size : 1.37 GiB
Stream size : 1.365 GiB
Stream size : 1.37 GiB (63%)
Proportion of this stream : 0.62704
Writing library : XviD0050
Writing library : XviD 1.2.1 (UTC 2008-12-04)
Writing library/Name : XviD
Writing library/Version : 1.2.1
Writing library/Date : UTC 2008-12-04
Audio #1
Count : 122
Count of stream of this kind : 3
Kind of stream : Audio
Kind of stream : Audio
Stream identifier : 0
Stream identifier : 1
ID : 1
ID : 1
Format : AC-3
Format/Info : Audio Coding 3
Codec ID : 2000
Codec : AC3
Codec : AC3
Codec/CC : 2000
Duration : 5099895
Duration : 1h 24mn
Duration : 1h 24mn 59s 895ms
Duration : 1h 24mn
Duration : 01:24:59.895
Bit rate mode : CBR
Bit rate mode : Constant
Bit rate : 448000
Bit rate : 448 Kbps
Channel(s) : 6
Channel(s) : 6 channels
Channel positions : Front: L C R, Surround: L R, LFE
Channel positions : 3/2.1
Sampling rate : 48000
Sampling rate : 48.0 KHz
SamplingCount : 244794960
Delay : 0
Video delay : 0
Video0 delay : 0
Stream size : 285594098
Stream size : 272 MiB (12%)
Stream size : 272 MiB
Stream size : 272 MiB
Stream size : 272 MiB
Stream size : 272.4 MiB
Stream size : 272 MiB (12%)
Proportion of this stream : 0.12216
Alignment : Split
Alignment : Split accross interleaves
Interleave, duration : 1.00
Interleave, duration : 42
Interleave, duration : 42 ms (1.00 video frame)
Interleave, preload duration : 500
Interleave, preload duration : 500 ms
Audio #2
Count : 122
Count of stream of this kind : 3
Kind of stream : Audio
Kind of stream : Audio
Stream identifier : 1
Stream identifier : 2
ID : 2
ID : 2
Format : AC-3
Format/Info : Audio Coding 3
Codec ID : 2000
Codec : AC3
Codec : AC3
Codec/CC : 2000
Duration : 5099895
Duration : 1h 24mn
Duration : 1h 24mn 59s 895ms
Duration : 1h 24mn
Duration : 01:24:59.895
Bit rate mode : CBR
Bit rate mode : Constant
Bit rate : 448000
Bit rate : 448 Kbps
Channel(s) : 6
Channel(s) : 6 channels
Channel positions : Front: L C R, Surround: L R, LFE
Channel positions : 3/2.1
Sampling rate : 48000
Sampling rate : 48.0 KHz
SamplingCount : 244794960
Delay : 0
Video delay : 0
Video0 delay : 0
Stream size : 285594098
Stream size : 272 MiB (12%)
Stream size : 272 MiB
Stream size : 272 MiB
Stream size : 272 MiB
Stream size : 272.4 MiB
Stream size : 272 MiB (12%)
Proportion of this stream : 0.12216
Alignment : Split
Alignment : Split accross interleaves
Interleave, duration : 1.00
Interleave, duration : 42
Interleave, duration : 42 ms (1.00 video frame)
Interleave, preload duration : 500
Interleave, preload duration : 500 ms
Audio #3
Count : 122
Count of stream of this kind : 3
Kind of stream : Audio
Kind of stream : Audio
Stream identifier : 2
Stream identifier : 3
ID : 3
ID : 3
Format : AC-3
Format/Info : Audio Coding 3
Codec ID : 2000
Codec : AC3
Codec : AC3
Codec/CC : 2000
Duration : 5099895
Duration : 1h 24mn
Duration : 1h 24mn 59s 895ms
Duration : 1h 24mn
Duration : 01:24:59.895
Bit rate mode : CBR
Bit rate mode : Constant
Bit rate : 448000
Bit rate : 448 Kbps
Channel(s) : 6
Channel(s) : 6 channels
Channel positions : Front: L C R, Surround: L R, LFE
Channel positions : 3/2.1
Sampling rate : 48000
Sampling rate : 48.0 KHz
SamplingCount : 244794960
Delay : 0
Video delay : 0
Video0 delay : 0
Stream size : 285594098
Stream size : 272 MiB (12%)
Stream size : 272 MiB
Stream size : 272 MiB
Stream size : 272 MiB
Stream size : 272.4 MiB
Stream size : 272 MiB (12%)
Proportion of this stream : 0.12216
Alignment : Split
Alignment : Split accross interleaves
Interleave, duration : 1.00
Interleave, duration : 42
Interleave, duration : 42 ms (1.00 video frame)
Interleave, preload duration : 500
Interleave, preload duration : 500 ms
-

Скриншоты

[Торрент-статистика]
[Профиль]  [ЛС] 
Показать сообщения:    
Ответить на тему

Текущее время: Сегодня 17:28

Часовой пояс: GMT + 4



Вы не можете начинать темы
Вы не можете отвечать на сообщения
Вы не можете редактировать свои сообщения
Вы не можете удалять свои сообщения
Вы не можете голосовать в опросах
Вы не можете прикреплять файлы к сообщениям
Вы не можете скачивать файлы