Бесконечная история / The NeverEnding Story / Die unendliche Geschichte (Вольфганг Петерсен) [1984, фэнтези, драма, приключения, HQRip]

Ответить на тему
 
Автор
Сообщение

diim ®

Пол:

Стаж: 5 лет 10 месяцев

Сообщений: 1038

Репутация: 112 [+] [-]

Пост 19-Авг-2012 11:08

[Цитировать] 

Бесконечная история / The NeverEnding Story / Die unendliche Geschichte-«A boy who needs a friend finds a world that needs a hero in a land beyond imagination!»-Год выпуска | 1984
Страна | США ∙ Германия (ФРГ)
Жанр | фэнтези ∙ драма ∙ приключения ∙ семейный
Продолжительность | 01:33:56
Перевод | Профессиональный (многоголосый, закадровый) ∙ Авторский (Jakob Bellmann) ∙ Оригинальный-Режиссер | Вольфганг Петерсен
Сценарий | Боб Истон ∙ Вольфганг Петерсен ∙ Херман Вайгель ∙ Михаэль Энде
Продюсер | Марк Дэймон ∙ Бернд Айхингер ∙ Дитер Гайсслер ∙ Джон В. Хайд ∙ Клаус Калер
Оператор | Йост Вакано
Композитор | Клаус Дольдингер ∙ Лимал ∙ Джорджо Мородер
В ролях | Баррет Оливер (Bastian Bux) ∙ Джералд МакРэйни (Barney Bux, Bastian's Father) ∙ Драм Гаррет (Bully #1) ∙ Дэррил Кукси (Bully #2) ∙ Николас Гилберт (Bully #3) ∙ Томас Хилл (Koreander) ∙ Дип Рой (Teeny Weeny) ∙ Тило Прюкнер (Night Hob) ∙ Моузес Ганн (Cairon) ∙ Ноа Хэтауэй (Atreyu) ∙ Алан Оппенхаймер (Falkor, G'mork, рассказчик, озвучка) ∙ Сидни Бромли (Engywook) и др.-Описание | Убегая от школьных хулиганов, 10-летний Бастиан спрятался в старой книжной лавке, где нашел таинственную книгу, изукрашенную орнаментом. Открыв ее, Бастиан попал в призрачный фантастический мир бегающих улиток, летающих собак, бескрылых Драконов Удачи, проказливых эльфов и ходячей каменоломни по имени Камнекус.
Но волшебной стране Фантазии и ее правительнице, Девочке-Императрице, угрожает страшная напасть под названием Ничто, порожденная «несбывшимися мечтами». Спасти Фантазию могут лишь юный воин Атрейю и сила воображения необыкновенного мечтателя Бастиана...
-kinopoisk.ru | 8.008 (9 259)-Бюджет | $27 000 000
Сборы в США | $20 158 808
Мировая премьера | 6 апреля 1984

Знаете ли Вы, что...

  • Фильм заканчивается примерно на середине книги Михаэля Энде, положенной в его основу.
Качество | HQRip
Контейнер | AVI
Видео | XviD ∙ 720x304 (2.35:1) ∙ 2141 kbps ∙ 23.976 fps ∙ 0.408 bit/pixel
Аудио #1 | AC3 ∙ 384 kbps ∙ CBR ∙ 6 channels ∙ 16 bit /MVO/
Аудио #2 | AC3 ∙ 384 kbps ∙ CBR ∙ 6 channels ∙ 16 bit /AVO/
Аудио #3 | AC3 ∙ 384 kbps ∙ CBR ∙ 6 channels ∙ 16 bit /ENG/

MediaInfo

General
Count : 257
Count of stream of this kind : 1
Kind of stream : General
Kind of stream : General
Stream identifier : 0
Count of video streams : 1
Count of audio streams : 3
Video_Format_List : MPEG-4 Visual
Video_Format_WithHint_List : MPEG-4 Visual (XviD)
Codecs Video : XviD
Audio_Format_List : AC-3 / AC-3 / AC-3
Audio_Format_WithHint_List : AC-3 / AC-3 / AC-3
Audio codecs : AC3 / AC3 / AC3
Audio_Language_List : / /
Complete name : L:\The.NeverEnding.Story.1984.HQRip.by.nimphus[R.G.KiNOvNiNO].avi
Folder name : L:
File name : The.NeverEnding.Story.1984.HQRip.by.nimphus[R.G.KiNOvNiNO]
File extension : avi
Format : AVI
Format : AVI
Format/Info : Audio Video Interleave
Format/Extensions usually used : avi
Format profile : OpenDML
Interleaved : Yes
Codec : AVI
Codec : AVI
Codec/Info : Audio Video Interleave
Codec/Extensions usually used : avi
File size : 2337757184
File size : 2.18 GiB
File size : 2 GiB
File size : 2.2 GiB
File size : 2.18 GiB
File size : 2.177 GiB
Duration : 5636724
Duration : 1h 33mn
Duration : 1h 33mn 56s 724ms
Duration : 1h 33mn
Duration : 01:33:56.724
Overall bit rate : 3317894
Overall bit rate : 3 318 Kbps
Stream size : 17140953
Stream size : 16.3 MiB (1%)
Stream size : 16 MiB
Stream size : 16 MiB
Stream size : 16.3 MiB
Stream size : 16.35 MiB
Stream size : 16.3 MiB (1%)
Proportion of this stream : 0.00733
File creation date : UTC 2012-08-10 23:42:26.667
File creation date (local) : 2012-08-11 03:42:26.667
File last modification date : UTC 2012-08-10 23:51:37.794
File last modification date (loc : 2012-08-11 03:51:37.794
Writing application : VirtualDubMod 1.5.10.2 (build 2540/release)
Writing library : VirtualDubMod build 2540/release
Writing library : VirtualDubMod build 2540/release
Video
Count : 144
Count of stream of this kind : 1
Kind of stream : Video
Kind of stream : Video
Stream identifier : 0
ID : 0
ID : 0
Format : MPEG-4 Visual
Format profile : Advanced Simple@L5
Format settings : BVOP
Format settings, BVOP : Yes
Format settings, BVOP : Yes
Format settings, QPel : No
Format settings, QPel : No
Format settings, GMC : 0
Format settings, GMC : No warppoints
Format settings, Matrix : Default (H.263)
Format settings, Matrix : Default (H.263)
Codec ID : XVID
Codec ID/Hint : XviD
Codec ID/Url : http://mediaarea.net/XVID
Codec : XVID
Codec : XviD
Codec/Family : MPEG-4V
Codec/Info : XviD project
Codec/Url : http://www.xvid.org/Downloads.15.0.html
Codec/CC : XVID
Codec profile : Advanced Simple@L5
Codec settings : BVOP
Codec settings, Packet bitstream : No
Codec settings, BVOP : Yes
Codec settings, QPel : No
Codec settings, GMC : 0
Codec settings, GMC : No warppoints
Codec settings, Matrix : Default (H.263)
Duration : 5636720
Duration : 1h 33mn
Duration : 1h 33mn 56s 720ms
Duration : 1h 33mn
Duration : 01:33:56.720
Bit rate : 2141568
Bit rate : 2 142 Kbps
Width : 720
Width : 720 pixels
Height : 304
Height : 304 pixels
Pixel aspect ratio : 1.000
Display aspect ratio : 2.368
Display aspect ratio : 2.35
Frame rate : 23.976
Frame rate : 23.976 fps
Frame count : 135146
Resolution : 24
Resolution : 24 bits
Colorimetry : 4:2:0
Scan type : Progressive
Scan type : Progressive
Interlacement : PPF
Interlacement : Progressive
Bits/(Pixel*Frame) : 0.408
Delay : 0
Stream size : 1508928059
Stream size : 1.41 GiB (65%)
Stream size : 1 GiB
Stream size : 1.4 GiB
Stream size : 1.41 GiB
Stream size : 1.405 GiB
Stream size : 1.41 GiB (65%)
Proportion of this stream : 0.64546
Writing library : XviD0050
Writing library : XviD 1.2.1 (UTC 2008-12-04)
Writing library/Name : XviD
Writing library/Version : 1.2.1
Writing library/Date : UTC 2008-12-04
Audio #1
Count : 122
Count of stream of this kind : 3
Kind of stream : Audio
Kind of stream : Audio
Stream identifier : 0
Stream identifier : 1
ID : 1
ID : 1
Format : AC-3
Format/Info : Audio Coding 3
Codec ID : 2000
Codec : AC3
Codec : AC3
Codec/CC : 2000
Duration : 5636724
Duration : 1h 33mn
Duration : 1h 33mn 56s 724ms
Duration : 1h 33mn
Duration : 01:33:56.724
Bit rate mode : CBR
Bit rate mode : Constant
Bit rate : 384000
Bit rate : 384 Kbps
Channel(s) : 6
Channel(s) : 6 channels
Channel positions : Front: L C R, Surround: L R, LFE
Channel positions : 3/2.1
Sampling rate : 48000
Sampling rate : 48.0 KHz
SamplingCount : 270562752
Delay : 0
Video delay : 0
Video0 delay : 0
Stream size : 270562724
Stream size : 258 MiB (12%)
Stream size : 258 MiB
Stream size : 258 MiB
Stream size : 258 MiB
Stream size : 258.0 MiB
Stream size : 258 MiB (12%)
Proportion of this stream : 0.11574
Alignment : Split
Alignment : Split accross interleaves
Interleave, duration : 1.00
Interleave, duration : 42
Interleave, duration : 42 ms (1.00 video frame)
Interleave, preload duration : 500
Interleave, preload duration : 500 ms
Audio #2
Count : 122
Count of stream of this kind : 3
Kind of stream : Audio
Kind of stream : Audio
Stream identifier : 1
Stream identifier : 2
ID : 2
ID : 2
Format : AC-3
Format/Info : Audio Coding 3
Codec ID : 2000
Codec : AC3
Codec : AC3
Codec/CC : 2000
Duration : 5636724
Duration : 1h 33mn
Duration : 1h 33mn 56s 724ms
Duration : 1h 33mn
Duration : 01:33:56.724
Bit rate mode : CBR
Bit rate mode : Constant
Bit rate : 384000
Bit rate : 384 Kbps
Channel(s) : 6
Channel(s) : 6 channels
Channel positions : Front: L C R, Surround: L R, LFE
Channel positions : 3/2.1
Sampling rate : 48000
Sampling rate : 48.0 KHz
SamplingCount : 270562752
Delay : 0
Video delay : 0
Video0 delay : 0
Stream size : 270562724
Stream size : 258 MiB (12%)
Stream size : 258 MiB
Stream size : 258 MiB
Stream size : 258 MiB
Stream size : 258.0 MiB
Stream size : 258 MiB (12%)
Proportion of this stream : 0.11574
Alignment : Split
Alignment : Split accross interleaves
Interleave, duration : 1.00
Interleave, duration : 42
Interleave, duration : 42 ms (1.00 video frame)
Interleave, preload duration : 500
Interleave, preload duration : 500 ms
Audio #3
Count : 122
Count of stream of this kind : 3
Kind of stream : Audio
Kind of stream : Audio
Stream identifier : 2
Stream identifier : 3
ID : 3
ID : 3
Format : AC-3
Format/Info : Audio Coding 3
Codec ID : 2000
Codec : AC3
Codec : AC3
Codec/CC : 2000
Duration : 5636724
Duration : 1h 33mn
Duration : 1h 33mn 56s 724ms
Duration : 1h 33mn
Duration : 01:33:56.724
Bit rate mode : CBR
Bit rate mode : Constant
Bit rate : 384000
Bit rate : 384 Kbps
Channel(s) : 6
Channel(s) : 6 channels
Channel positions : Front: L C R, Surround: L R, LFE
Channel positions : 3/2.1
Sampling rate : 48000
Sampling rate : 48.0 KHz
SamplingCount : 270562752
Delay : 0
Video delay : 0
Video0 delay : 0
Stream size : 270562724
Stream size : 258 MiB (12%)
Stream size : 258 MiB
Stream size : 258 MiB
Stream size : 258 MiB
Stream size : 258.0 MiB
Stream size : 258 MiB (12%)
Proportion of this stream : 0.11574
Alignment : Split
Alignment : Split accross interleaves
Interleave, duration : 1.00
Interleave, duration : 42
Interleave, duration : 42 ms (1.00 video frame)
Interleave, preload duration : 500
Interleave, preload duration : 500 ms

Скриншоты

[Торрент-статистика]
[Профиль]  [ЛС] 
Показать сообщения:    
Ответить на тему

Текущее время: Сегодня 23:07

Часовой пояс: GMT + 4



Вы не можете начинать темы
Вы не можете отвечать на сообщения
Вы не можете редактировать свои сообщения
Вы не можете удалять свои сообщения
Вы не можете голосовать в опросах
Вы не можете прикреплять файлы к сообщениям
Вы не можете скачивать файлы