Огненные птицы / Fire Birds (Дэвид Грин /David Greene) [1990 г., Боевик, Приключения, DVDRip]

Ответить на тему
 
Автор
Сообщение

awk05 ®

Пол:

Стаж: 8 лет 5 месяцев

Сообщений: 1334

Репутация: 278 [+] [-]

Откуда: Западная Украина Ривне

Пост 07-Фев-2014 04:44

[Цитировать] 

--Огненные птицы / Fire Birds--
Год выпуска: 1990
Страна: Touchstone Pictures США
Жанр: Боевик, Приключения
Продолжительность: 86 мин
Перевод: Любительский (одноголосый)
Русские субтитры: нет--
Режиссер: Дэвид Грин /David Greene--
В ролях: Николас Кэйдж (Jake Preston), Томми Ли Джоунс (Brad Little), Шон Янг (Billie Lee Guthrie), Брайан Кестнер (Breaker), Иллэна Дайамант (Sharon Geller), Дэйл Дай (A.K. McNeil), Мэри Эллен Трейнор (Janet Little), Дж.А. Престон (General Olcott), Питер Онорати (Rice), Маршалл Р. Тиг (Doug Daniels)--
Описание: Американская армия помогает дружественному режиму в одной из стран Южной Америки бороться с наркокартелями. На наркобаронов работают лётчики из стран железного занавеса во главе с Деваром Проктором, который имеет на лицевом счёте немало сбитых американских вертолётов.
Для подавления противника американцы планируют применить вертолёты AH-64 «Апач». Для этого целая группа пилотов проходит специальный курс подготовки. В числе избранных — Джейк Престон, олицетворяющий крутого и самонадеянного лётчика. Именно ему предстоит сыграть главную роль в решающей воздушной битве за правое дело.--

Качество: DVDRip
Формат: AVI
Видео кодек: XviD
Аудио кодек: AC3
Видео: 720x400 (16:9), 23,976 кадра/сек, 2060 Кбит/сек, 0.298 Бит/(Пиксели*Кадры)
Аудио: 2 канала Front: L R, 48,0 КГц, 192 Кбит/сек [RUS]--
--

MediaInfo

Общее
Полное имя : G:\Films\Николас Кейдж\Fire_Birds_[torrents.ru]\Fire_Birds.avi
Формат : AVI
Формат/Информация : Audio Video Interleave
Размер файла : 1,37 Гбайт
Продолжительность : 1 ч. 26 м.
Общий поток : 2259 Кбит/сек
Программа кодирования : VirtualDubMod 1.5.4.1 (build 2178/release)
Библиотека кодирования : VirtualDubMod build 2178/release
Видео
Идентификатор : 0
Формат : MPEG-4 Visual
Профиль формата : Advanced Simple@L5
Параметр BVOP формата : 1
Параметр QPel формата : Нет
Параметр GMC формата : Без точки перехода
Параметр матрицы формата : Выборочная
Идентификатор кодека : XVID
Идентификатор кодека/Подсказка : XviD
Продолжительность : 1 ч. 26 м.
Битрейт : 2060 Кбит/сек
Ширина : 720 пикселей
Высота : 400 пикселей
Соотношение сторон : 16:9
Частота кадров : 23,976 кадра/сек
Цветовое пространство : YUV
Субдискретизация насыщенности : 4:2:0
Битовая глубина : 8 бит
Тип развёртки : Прогрессивная
Метод сжатия : С потерями
Бит/(Пиксели*Кадры) : 0.298
Размер потока : 1,25 Гбайт (91%)
Библиотека кодирования : XviD 1.2.0.dev47 (UTC 2006-11-01)
Аудио
Идентификатор : 1
Формат : AC-3
Формат/Информация : Audio Coding 3
Расширение режима : CM (complete main)
Параметр Endianness формата : Big
Идентификатор кодека : 2000
Продолжительность : 1 ч. 26 м.
Вид битрейта : Постоянный
Битрейт : 192 Кбит/сек
Каналы : 2 канала
Расположение каналов : Front: L R
Частота : 48,0 КГц
Битовая глубина : 16 бит
Метод сжатия : С потерями
Размер потока : 119 Мбайт (8%)
Выравнивание : Разделение по промежуткам
Продолжительность промежутка : 96 мс. (2,30 видеокадра)
Время предзагрузки промежутка : 96 мс.
Язык : Russian

Скриншоты




_________________
[Торрент-статистика]
[Профиль]  [ЛС] 
Показать сообщения:    
Ответить на тему

Текущее время: Сегодня 18:13

Часовой пояс: GMT + 4



Вы не можете начинать темы
Вы не можете отвечать на сообщения
Вы не можете редактировать свои сообщения
Вы не можете удалять свои сообщения
Вы не можете голосовать в опросах
Вы не можете прикреплять файлы к сообщениям
Вы не можете скачивать файлы