Девушка из долины / Valley Girl (Марта Кулидж / Martha Coolidge) [1983, США, комедия, мелодрама, HDTVRip] DVO (НТВ+)

Ответить на тему
 
Автор
Сообщение

awk05 ®

Пол:

Стаж: 8 лет 5 месяцев

Сообщений: 1334

Репутация: 278 [+] [-]

Откуда: Западная Украина Ривне

Пост 06-Фев-2014 18:16

[Цитировать] 

--Девушка из долины / Valley Girl-- Страна: США
Жанр: комедия, мелодрама
Год выпуска: 1983
Продолжительность: 01:35:18
Перевод: Профессиональный (двухголосый закадровый) НТВ+
Cубтитры: нет--
Режиссер: Марта Кулидж / Martha Coolidge--
В ролях: Николас Кейдж (Randy), Дебора Формен (Julie Richman), Элизабет Дэйли (Loryn), Майкл Боуэн (Tommy), Кэмерон Дай (Fred Bailey), Мишель Майринк (Suzi Brent), Ли Пурселл (Beth Brent), Ричард Сандерс (Drivers' Ed Teacher), Коллин Кэмп (Sarah Richman), Фредерик Форрест (Steve Richman)--
Описание: Фильм получился очень хорошим только потому, что режиссеру Марте Кулидж удалось передать свою любовь, понимание и сочувствие двум своим главным героям, вдохновенно сыгранным прекрасными и такими юными (тогда) актерами - Николасом Кэйджем и Деборой Формэн. Поэтому и сердца зрителей не могут остаться равнодушными. Она, это ясно из названия фильма, действительно девушка из долины, что (в нашей стране) равнозначно девушке из деревни, произносит глупый набор бессмысленных фраз-клише из кинофильмов, песен и книг, а он - голливудский пижон, приехавший на вечеринку в долину только для того, чтобы повеселиться. На этой вечеринке они и знакомятся. Вспыхивает страстный роман, шокирующий школьных подруг девушки и приобретающий социально угрожающий характер для героини Формэн. Приятно, что нет карикатурных родителей, слишком часто бывающих в подобных лентах. (Иванов М.)--
Качество: HDTVRip
Формат: AVI
Видео кодек: XviD
Аудио кодек: AC3
Видео: 720x400 (16:9), 25,000 кадра/сек, 1980 Кбит/сек, 0.275 Бит/(Пиксели*Кадры)
Аудио 1: 2 канала Front: L R, 48,0 КГц, 192 Кбит/сек, 16 бит [RUS]--

MediaInfo

Девушка из долины - Valley Girl [Rip by Ledy_X].avi
Format : AVI
Format/Info : Audio Video Interleave
File size : 1.45 GiB
Duration : 1h 35mn
Overall bit rate : 2 181 Kbps
Movie name : Девушка из долины - Valley Girl [Rip by Ledy_X]
Director : Rip by Ledy_X
Writing application : VirtualDubMod 1.5.10.3 | www.virtualdub-fr.org || (build 2550/release)
Copyright : Edich2
Comment : RuTracker.org
Video
ID : 0
Format : MPEG-4 Visual
Format profile : Advanced Simple@L5
Format settings, BVOP : 2
Format settings, QPel : No
Format settings, GMC : No warppoints
Format settings, Matrix : Custom
Codec ID : XVID
Codec ID/Hint : XviD
Duration : 1h 35mn
Bit rate : 1 980 Kbps
Width : 720 pixels
Height : 400 pixels
Display aspect ratio : 16:9
Frame rate : 25.000 fps
Color space : YUV
Chroma subsampling : 4:2:0
Bit depth : 8 bits
Scan type : Progressive
Compression mode : Lossy
Bits/(Pixel*Frame) : 0.275
Stream size : 1.32 GiB (91%)
Writing library : XviD 1.2.1 (UTC 2008-12-04)
Audio
ID : 1
Format : AC-3
Format/Info : Audio Coding 3
Mode extension : CM (complete main)
Format settings, Endianness : Big
Codec ID : 2000
Duration : 1h 35mn
Bit rate mode : Constant
Bit rate : 192 Kbps
Channel(s) : 2 channels
Channel positions : Front: L R
Sampling rate : 48.0 KHz
Bit depth : 16 bits
Compression mode : Lossy
Stream size : 131 MiB (9%)
Alignment : Split accross interleaves
Interleave, duration : 40 ms (1.00 video frame)
Interleave, preload duration : 500 ms

Скриншоты


_________________
[Торрент-статистика]
[Профиль]  [ЛС] 
Показать сообщения:    
Ответить на тему

Текущее время: Сегодня 20:25

Часовой пояс: GMT + 4



Вы не можете начинать темы
Вы не можете отвечать на сообщения
Вы не можете редактировать свои сообщения
Вы не можете удалять свои сообщения
Вы не можете голосовать в опросах
Вы не можете прикреплять файлы к сообщениям
Вы не можете скачивать файлы