Время убивать / Time to Kill / Tempo di uccidere / Short Cut, The (Джулиано Монтальдо / Giuliano Montaldo) [1989 г., Война / Драма, DVDRip]

Ответить на тему
 
Автор
Сообщение

awk05 ®

Пол:

Стаж: 8 лет 5 месяцев

Сообщений: 1334

Репутация: 278 [+] [-]

Откуда: Западная Украина Ривне

Пост 06-Фев-2014 17:39

[Цитировать] 

--Время убивать / Time to Kill / Tempo di uccidere / Short Cut, The-- Год выпуска: 1989
Страна: Италия-Франция
Жанр: Война / Драма
Продолжительность: 01:38:28
Перевод: Профессиональный (многоголосый)
Русские субтитры: нет--
Режиссер: Джулиано Монтальдо / Giuliano Montaldo--
В ролях: Николас Кейдж (Enrico Silvestri), Рикки Тоньяцци (Mario), Патрис-Флора Праксо (Mariam), Джанлука Фавилла (Army Driver), Жорж Клесе (Doctor), Робер Лиенсоль (Joannes), Витторио Амандола (), Пао Пей Андреоли (Troops' Mascot), Марио Мадзаротто (Army Clerk), Микеле Мелега (Blonde Worker)----Описание: Экранизация романа "Кратчайший путь" ("Short Cut") Эннио Флайано (Ennio Flaiano). Молодой итальянский солдат (Кэйдж), служащий в Африке, набрел на скрытый в пустыне оазис и крутанул любовь с юной африканкой. Но их встречи заканчиваются трагически, когда однажды ночью он смертельно ранит ее случайной пулей. Мучимый виной, он прячет ее тело, а потом узнает, что, возможно, заразился проказой. Фильм снят таким образом, что поднимается выше сюжета, и это касается всего - работы оператора, подбора актеров и их игры, пейзажа, музыки, темпа и ритмики смены кадра. Фильм незаслуженно обойден вниманием зрителей (Иванов М.)--
Качество: DVDRip
Формат: AVI
Видео кодек: XviD
Аудио кодек: MP3
Видео: 720x432 (1.67:1), 25.000 fps, XviD build 46 ~1794 kbps avg, 0.231 bit/pixel
Аудио: 48 kHz, MPEG Layer 3, 2 ch, ~192 kbps avg--
--

MediaInfo

Общее
Полное имя : G:\Films\Николас Кейдж\Vremya.ubivat.1989.XviD.DVDRip.avi
Формат : AVI
Формат/Информация : Audio Video Interleave
Размер файла : 1,37 Гбайт
Продолжительность : 1 ч. 38 м.
Режим общего битрейта : Переменный
Общий поток : 1987 Кбит/сек
Программа кодирования : VirtualDubMod 1.5.4.1 (build 2178/release)
Библиотека кодирования : VirtualDubMod build 2178/release
Видео
Идентификатор : 0
Формат : MPEG-4 Visual
Профиль формата : Advanced Simple@L5
Параметр BVOP формата : 1
Параметр QPel формата : Нет
Параметр GMC формата : Без точки перехода
Параметр матрицы формата : Выборочная
Идентификатор кодека : XVID
Идентификатор кодека/Подсказка : XviD
Продолжительность : 1 ч. 38 м.
Битрейт : 1794 Кбит/сек
Ширина : 720 пикселей
Высота : 432 пикселя
Соотношение сторон : 1,667
Частота кадров : 25,000 кадров/сек
Цветовое пространство : YUV
Субдискретизация насыщенности : 4:2:0
Битовая глубина : 8 бит
Тип развёртки : Прогрессивная
Метод сжатия : С потерями
Бит/(Пиксели*Кадры) : 0.231
Размер потока : 1,23 Гбайт (90%)
Библиотека кодирования : XviD 1.1.2 (UTC 2006-11-01)
Аудио
Идентификатор : 1
Формат : MPEG Audio
Версия формата : Version 1
Профиль формата : Layer 3
Режим : Joint stereo
Расширение режима : MS Stereo
Идентификатор кодека : 55
Идентификатор кодека/Подсказка : MP3
Продолжительность : 1 ч. 38 м.
Вид битрейта : Переменный
Битрейт : 179 Кбит/сек
Номинальный битрейт : 192 Кбит/сек
Каналы : 2 канала
Частота : 48,0 КГц
Метод сжатия : С потерями
Размер потока : 126 Мбайт (9%)
Выравнивание : Соединение по промежуткам
Продолжительность промежутка : 24 мс. (0,60 видеокадр)
Время предзагрузки промежутка : 102 мс.
Библиотека кодирования : LAME3.97
Настройки программы : -m j -V 4 -q 2 -lowpass 18.6 --abr 192

Скриншоты


_________________
[Торрент-статистика]
[Профиль]  [ЛС] 
Показать сообщения:    
Ответить на тему

Текущее время: Сегодня 21:50

Часовой пояс: GMT + 4



Вы не можете начинать темы
Вы не можете отвечать на сообщения
Вы не можете редактировать свои сообщения
Вы не можете удалять свои сообщения
Вы не можете голосовать в опросах
Вы не можете прикреплять файлы к сообщениям
Вы не можете скачивать файлы