Во власти луны / Очарованные луной / Власть луны / Moonstruck (Норман Джуисон / Norman Jewison) [1987, США, комедия, мелодрама, HDRip] R5 MVO

Ответить на тему
 
Автор
Сообщение

awk05 ®

Пол:

Стаж: 8 лет 5 месяцев

Сообщений: 1334

Репутация: 278 [+] [-]

Откуда: Западная Украина Ривне

Пост 06-Фев-2014 05:49

[Цитировать] 

--Во власти луны (Очарованные луной) / Moonstruck-- Год выпуска: 1987
Страна: США
Жанр: kомедия, мелодрама
Продолжительность: 1:41:56
Перевод: Профессиональный (многоголосый закадровый) - лицензия R5
Русские субтитры: нет--
Режиссер: Норман Джуисон / Norman Jewison--
В ролях: Шер (Loretta Castorini), Николас Кейдж (Ronny Cammareri), Винсент Гардения (Cosmo Castorini), Олимпия Дукакис (Rose Castorini), Дэнни Айелло (Mr. Johnny Cammareri), Джули Бовассо (Rita Cappomaggi), Джон Махони (Perry), Луис Гасс (Raymond Cappomaggi), Федор Шаляпин мл. (Old Man), Анита Джиллет (Mona)--
Описание: Когда над городом восходит полная Луна, странные вещи творятся с почтенным итальянским семейством, в котором дочь накануне своего второго замужества вдруг понимает, что любит другого, отец неверен своей супруге, а за последней ухаживает посторонний мужчина.
При свете дня все эти люди сохраняют благоразумие и владеют своими чувствами, однако с наступлением Луны ни за кого из них нельзя поручиться!--

Качество: HDRip
Формат: AVI
Видео кодек: XviD
Аудио кодек: AC3
Видео: 720x384 (1,85:1), 23,976 кадра/сек, 1590 Кбит/сек, 0.240 Бит/(Пиксели*Кадры)
Аудио 1: 6 каналов Front: L C R, Side: L R, LFE, 48,0 КГц, 448 Кбит/сек, 16 бит [RUS]--
--

MediaInfo

Общее
Полное имя : G:\Films\Николас Кейдж\Vlast.Luny.1987.XviD.HDRip.RusMVO.avi
Формат : AVI
Формат/Информация : Audio Video Interleave
Размер файла : 1,46 Гбайт
Продолжительность : 1 ч. 41 м.
Общий поток : 2048 Кбит/сек
Название фильма : Vlast.Luny.1987.XviD.HDRip.RusMVO
Жанр : Comedy/Romance
Программа кодирования : VirtualDubMod 1.5.10.3 | www.virtualdub-fr.org || (build 2550/release)
Формат оригинала/Имя : Movie
Правообладатель : Rip by AMAPAHT [RuTracker.org]
Примечание : RusMVO R5
Видео
Идентификатор : 0
Формат : MPEG-4 Visual
Профиль формата : Advanced Simple@L5
Параметр BVOP формата : 1
Параметр QPel формата : Нет
Параметр GMC формата : Без точки перехода
Параметр матрицы формата : Выборочная
Идентификатор кодека : XVID
Идентификатор кодека/Подсказка : XviD
Продолжительность : 1 ч. 41 м.
Битрейт : 1590 Кбит/сек
Ширина : 720 пикселей
Высота : 384 пикселя
Соотношение сторон : 1,85:1
Частота кадров : 23,976 кадра/сек
Цветовое пространство : YUV
Субдискретизация насыщенности : 4:2:0
Битовая глубина : 8 бит
Тип развёртки : Прогрессивная
Метод сжатия : С потерями
Бит/(Пиксели*Кадры) : 0.240
Размер потока : 1,13 Гбайт (78%)
Библиотека кодирования : XviD 62
Аудио
Идентификатор : 1
Формат : AC-3
Формат/Информация : Audio Coding 3
Расширение режима : CM (complete main)
Параметр Endianness формата : Big
Идентификатор кодека : 2000
Продолжительность : 1 ч. 41 м.
Вид битрейта : Постоянный
Битрейт : 448 Кбит/сек
Каналы : 6 каналов
Расположение каналов : Front: L C R, Side: L R, LFE
Частота : 48,0 КГц
Битовая глубина : 16 бит
Метод сжатия : С потерями
Размер потока : 327 Мбайт (22%)
Выравнивание : Разделение по промежуткам
Продолжительность промежутка : 42 мс. (1,00 видеокадр)
Время предзагрузки промежутка : 500 мс.

Скриншоты


_________________
[Торрент-статистика]
[Профиль]  [ЛС] 
Показать сообщения:    
Ответить на тему

Текущее время: Сегодня 15:16

Часовой пояс: GMT + 4



Вы не можете начинать темы
Вы не можете отвечать на сообщения
Вы не можете редактировать свои сообщения
Вы не можете удалять свои сообщения
Вы не можете голосовать в опросах
Вы не можете прикреплять файлы к сообщениям
Вы не можете скачивать файлы