Горец / Highlander (Расселл Малкахи / Russell Mulcahy) [1986, научная фантастика, приключения, фэнтези, BDRip] [режиссерская версия / director's cut] MVO (Нева-1) + Original Eng

Ответить на тему
 
Автор
Сообщение

awk05 ®

Пол:

Стаж: 8 лет 5 месяцев

Сообщений: 1334

Репутация: 278 [+] [-]

Откуда: Западная Украина Ривне

Пост 07-Янв-2014 21:49

[Цитировать] 

--Горец / Highlander--режиссерская версия / director's cut --Страна: США, Великобритания Thorn EMI Screen Entertainment, Highlander Productions Limited
Жанр: научная фантастика, приключения, фэнтези
Год выпуска: 1986
Продолжительность: 01:56:38
Перевод: Профессиональный (многоголосый закадровый) Нева-1
Cубтитры: нет
Оригинальная аудиодорожка: английский--Режиссер: Расселл Малкахи / Russell Mulcahy--Роли озвучивали: Елена Градина, Алексей Лебедев, Геннадий Ромов, Вадим Никитин, Евгений Умаров, Юрий Орлов, Станислав Соколов-В ролях: Кристофер Ламберт, Роксанна Харт, Клэнси Браун, Шон Коннери, Бети Эдни, Алан Норт, Джон Полито, Шила Гиш, Хью Куарши, Кристофер Малкольм--Описание: Коннор Маклауд — шотландец, который в 1536 году был сражен в битве, но мистическим образом воскрес, и родной клан изгнал его. Учителем Маклауда стал испанский дворянин, объяснивший, что он принадлежит к бессмертной расе воинов, которых можно лишить жизни, лишь обезглавив мечом…
Сражение между Маклаудом и его вечным врагом Курганом, начавшееся в Шотландии XVI века, подолжается в современном Манхеттене. От исхода этой битвы зависит судьба всех смертных. Это часть дуэли, продолжающейся веками.-- --Качество: BDRip
Формат: AVI
Видео кодек:: XviD build 64
Аудио кодек:: AC3
Видео: 704x384 (1.85:1), 24.000 fps, ~2198 kbps avg, 0.339 bit/pixel
Аудио 1: 2 channels, 48 kHz, ~192 kbps
Аудио 2: 2 channels, 48 kHz, ~192 kbps-- --

MediaInfo

General
Complete name : E:\Films\Highlander_1986.Neva.BDRip.avi
Format : AVI
Format/Info : Audio Video Interleave
Format profile : OpenDML
File size : 2.12 GiB
Duration : 1h 56mn
Overall bit rate : 2 600 Kbps
Video
ID : 0
Format : MPEG-4 Visual
Format profile : Advanced Simple@L5
Format settings, BVOP : 1
Format settings, QPel : No
Format settings, GMC : No warppoints
Format settings, Matrix : Custom
Codec ID : XVID
Codec ID/Hint : XviD
Duration : 1h 56mn
Bit rate : 2 198 Kbps
Width : 704 pixels
Height : 384 pixels
Display aspect ratio : 1.85:1
Frame rate : 24.000 fps
Color space : YUV
Chroma subsampling : 4:2:0
Bit depth : 8 bits
Scan type : Progressive
Compression mode : Lossy
Bits/(Pixel*Frame) : 0.339
Stream size : 1.79 GiB (85%)
Writing library : XviD 64
Audio #1
ID : 1
Format : AC-3
Format/Info : Audio Coding 3
Mode extension : CM (complete main)
Format settings, Endianness : Big
Codec ID : 2000
Duration : 1h 56mn
Bit rate mode : Constant
Bit rate : 192 Kbps
Channel count : 2 channels
Channel positions : Front: L R
Sampling rate : 48.0 KHz
Bit depth : 16 bits
Compression mode : Lossy
Stream size : 160 MiB (7%)
Alignment : Split accross interleaves
Interleave, duration : 42 ms (1.00 video frame)
Interleave, preload duration : 500 ms
Audio #2
ID : 2
Format : AC-3
Format/Info : Audio Coding 3
Mode extension : CM (complete main)
Format settings, Endianness : Big
Codec ID : 2000
Duration : 1h 56mn
Bit rate mode : Constant
Bit rate : 192 Kbps
Channel count : 2 channels
Channel positions : Front: L R
Sampling rate : 48.0 KHz
Bit depth : 16 bits
Compression mode : Lossy
Stream size : 160 MiB (7%)
Alignment : Split accross interleaves
Interleave, duration : 42 ms (1.00 video frame)
Interleave, preload duration : 500 ms

Интересная информация

* Конор Маклауд произносит в фильме фразу «Это сродни волшебству». Примерно также «A Kind of Magic» называется альбом группы Queen, песни из которого вошли в саунтрек картины. Ветеран войны во Вьетнаме, пытающийся застрелить Кургана, слушает в своей машине песню «Hammer to Fall» в исполнении Queen.
* Почти все сцены фильма, где действие происходит в Нью-Йорке, на самом деле снимались в Лондоне. В частности, сцену схватки Кургана и Кастагира сняли в аллее, предназначенной на слом через несколько месяцев. Там же устроили взрыв, который оказался столь громким, что на него съехалась полиция с восьми округов.
* Европейская версия фильма включает в себя ретроспективные кадры событий во время Второй Мировой войны, когда Маклауд спасает Рейчел, тогда еще маленькую девочку. Из американского варианта фильма эти эпизоды были вырезаны.
* Кристофер Ламберт и Шон Коннери находились в прекрасных отношениях во время съемок картины и называли друг друга именами своих персонажей и вне съемочной площадки. Именно по настоянию Ламберта продюсеры вернули героя Коннери во второй фильм.
* Когда Кристофер Ламберт приступил к съемкам этого фильма, он еще плохо говорил по-английски, единственный фильм на английском языке в котором он до этого снимался, был «Легенда о Тарзане, Бог обезьян» («The Legend of Tarzan, Lord of the Apes») 1984 года. И там он говорил на английском всего несколько слов.
* Из всех актеров, снимавшихся в фильме «Горец», звездный статус был только у Шона Коннери. Создателям фильма его участие в съемках, длившихся несколько недель, обошлось почти в 10 млн. долларов.
* Фильм практически полностью снят в Великобритании: прошлое Коннора МакЛауда снималось в Шотландии, а кадры современности — в Лондоне
* Сцены тренинга Рамиреса м Коннора МакЛауда снимались без дублёров, мечи катана и клеймор были настоящими, а не бутафорскими.
* Герой Кристофера Ламберта, антиквар Рассел Нэш, ездил на автомобиле «Porsche 356 Speedster».
* Если вспомнить фильм, главным желанием Бренды, как специалиста по мечам, было увидеть катану, которой был обезглавлен Аман Фазил. В кадрах, которые были сняты, но не вошли в фильм, Коннор предоставил ей такую возможность.

_________________
[Торрент-статистика]
[Профиль]  [ЛС] 
Показать сообщения:    
Ответить на тему

Текущее время: Сегодня 06:17

Часовой пояс: GMT + 4



Вы не можете начинать темы
Вы не можете отвечать на сообщения
Вы не можете редактировать свои сообщения
Вы не можете удалять свои сообщения
Вы не можете голосовать в опросах
Вы не можете прикреплять файлы к сообщениям
Вы не можете скачивать файлы