Пьяный рассвет / Tequila Sunrise (Роберт Таун / Robert Towne) [1988, боевик, триллер, мелодрама, криминал, HDTVRip] DUB

Ответить на тему
 
Автор
Сообщение

awk05 ®

Пол:

Стаж: 8 лет 5 месяцев

Сообщений: 1334

Репутация: 278 [+] [-]

Откуда: Западная Украина Ривне

Пост 07-Янв-2014 20:59

[Цитировать] 

--Пьяный рассвет / Tequila Sunrise-- Жанр: боевик, триллер, мелодрама, криминал
Страна: США The Mount Company, Warner Bros. Pictures Co.
Год выпуска: 1988
Продолжительность: 1:50:24
Перевод: Профессиональный (дублированный)
Cубтитры: нет--Режиссер: Роберт Таун / Robert Towne--В ролях: Мэл Гибсон, Мишель Пфайффер, Курт Рассел, Рауль Хулиа, Дж.Т. Уолш, Гэбриел Дэймон, Арлисс Ховард, Ари Гросс, Дэниэл Зацапа, Эрик Тьеле--Описание: Мак был малопривлекательным торговцем наркотиками, который жил по принципу "Иди напролом". Его лучший друг Ник был полицейским, которому, так уж сложилось, нужно было расследовать дело о распространи наркотиков и привлечь Мака к ответственности.
Мак стал предметом обожания для Джо Энн, владелицы стильного ресторана. Она была заинтересована в работе Мака и обещала свести его с известным дилером из Мексики, Карлосом. Ник не собирался оставаться в стороне и пристально следил за развитием событий.-- --Качество видео: HDTVRip
Формат видео: AVI
Видео кодек:: XviD build 50,
Аудио кодек:: AC3
Видео: 720x400 (16:9), 25.000 fps, 1361 kbps avg, 0.189 bit/pixel
Аудио: 6 channels, Dolby Digital, 3/2 (L,C,R,l,r) + LFE ch, 48 kHz, 448.00 kbps avg-- --

MediaInfo

General
Complete name : E:\Films\Пьяный рассвет.avi
Format : AVI
Format/Info : Audio Video Interleave
File size : 1.46 GiB
Duration : 1h 50mn
Overall bit rate : 1 893 Kbps
Writing application : VirtualDubMod 1.5.10.2 (build 2542/release)
Writing library : VirtualDubMod build 2542/release
Video
ID : 0
Format : MPEG-4 Visual
Format profile : Advanced Simple@L5
Format settings, BVOP : 1
Format settings, QPel : No
Format settings, GMC : No warppoints
Format settings, Matrix : Custom
Codec ID : XVID
Codec ID/Hint : XviD
Duration : 1h 50mn
Bit rate : 1 361 Kbps
Width : 720 pixels
Height : 400 pixels
Display aspect ratio : 16:9
Frame rate : 25.000 fps
Color space : YUV
Chroma subsampling : 4:2:0
Bit depth : 8 bits
Scan type : Progressive
Compression mode : Lossy
Bits/(Pixel*Frame) : 0.189
Stream size : 1.05 GiB (72%)
Writing library : XviD 1.2.1 (UTC 2008-12-04)
Audio
ID : 1
Format : AC-3
Format/Info : Audio Coding 3
Mode extension : CM (complete main)
Format settings, Endianness : Big
Codec ID : 2000
Duration : 1h 50mn
Bit rate mode : Constant
Bit rate : 448 Kbps
Channel count : 6 channels
Channel positions : Front: L C R, Side: L R, LFE
Sampling rate : 48.0 KHz
Bit depth : 16 bits
Compression mode : Lossy
Stream size : 354 MiB (24%)
Alignment : Split accross interleaves

_________________
[Торрент-статистика]
[Профиль]  [ЛС] 

golopogost

Стаж: 6 лет 10 месяцев

Сообщений: 1

Репутация: 0 [+] [-]

Пост 01-Июн-2014 02:25 (спустя 4 месяца 24 дня)

[Цитировать] 

мат
[Торрент-статистика]
[Профиль]  [ЛС] 

luis5

Пол:

Стаж: 7 лет 1 месяц

Сообщений: 108

Репутация: 51 [+] [-]

Откуда: Кузбасс

Пост 01-Июн-2014 16:40 (спустя 14 часов)

[Цитировать] 

bw bt атэц
[Торрент-статистика]
[Профиль]  [ЛС] 

aleks

Пол:

Стаж: 9 лет

Сообщений: 374

Репутация: 144 [+] [-]

Пост 01-Июн-2014 18:12 (спустя 1 час 32 минуты)

[Цитировать] 

скрины сдохли ?
[Торрент-статистика]
[Профиль]  [ЛС] 
Показать сообщения:    
Ответить на тему

Текущее время: Сегодня 06:48

Часовой пояс: GMT + 4



Вы не можете начинать темы
Вы не можете отвечать на сообщения
Вы не можете редактировать свои сообщения
Вы не можете удалять свои сообщения
Вы не можете голосовать в опросах
Вы не можете прикреплять файлы к сообщениям
Вы не можете скачивать файлы