Чернокнижник / Warlock (Стив Майнер / Steve Miner) [1989, боевик, фэнтези, фильм ужасов, триллер, BDRip] MVO + Eng

Ответить на тему
 
Автор
Сообщение

awk05 ®

Пол:

Стаж: 8 лет 5 месяцев

Сообщений: 1334

Репутация: 278 [+] [-]

Откуда: Западная Украина Ривне

Пост 06-Янв-2014 23:34

[Цитировать] 

--Чернокнижник / Warlock-- Год выпуска: 1989
Страна: США
Жанр: боевик, фэнтези, фильм ужасов, триллер
Продолжительность: 01:43:12
Перевод: Профессиональный (многоголосый, закадровый)
Русские субтитры: нет--Режиссер: Стив Майнер / Steve Miner--В ролях: Джулиан Сэндс (Warlock), Лори Сингер (Kassandra), Ричард Э. Грант (Giles Redferne), Мэри Воронов (Channeler), Кевин О`Брайэн (Chas), Ричард Касс (Mennonite), Аллан Миллер (Detective), Анна Левайн-Томпсон (Pastor's Wife), Дэвид Карпентер (Pastor), Кей Катер (Proctor), Йен Эберкромби (Magistrate #1), Кеннет Дэнзигер (Magistrate #2)--Описание: Бостон, 1691 год. До казни самого могущественного колдуна-чернокнижника Нового Света остается лишь несколько часов. Но сам дьявол освобождает своего ученика из заточения и переносит его на триста лет вперед, через пространство и время, в современный Лос-Анджелес. Здесь чернокнижник должен найти и соединить три части Великого Гримуара — сатанинской Библии — и раскрыть тайное имя Господа, после чего Земля окажется во власти дьявола. Но на его пути встает охотник на ведьм Жиль Редферн, предавший чернокнижника суду Господню в средневековой Новой Англии и перенесшийся вслед за ним в современный Лос-Анджелес.-- --Качество: BDRip
Формат: AVI
Видео кодек:: XviD
Аудио кодек:: AC3
Видео: 720x384 (1.88:1), 23.976 fps, ~1579 kbps avg, 0.24 bit/pixel
Аудио: 48 kHz, AC3 Dolby Digital, 2/0 (L,R) ch, ~192 kbps RUS
Аудио: 48 kHz, AC3 Dolby Digital, 2/0 (L,R) ch, ~224 kbps ENG-- --

MediaInfo

General
Complete name : Chernoknighnik.chopper887.avi
Format : AVI
Format/Info : Audio Video Interleave
File size : 1.45 GiB
Duration : 1h 43mn
Overall bit rate : 2 010 Kbps
Writing application : VirtualDubMod 1.5.10.3 | www.virtualdub-fr.org || (build 2550/release)
Writing library : VirtualDubMod build 2550/release
Video
ID : 0
Format : MPEG-4 Visual
Format profile : Advanced Simple@L5
Format settings, BVOP : 2
Format settings, QPel : No
Format settings, GMC : No warppoints
Format settings, Matrix : Custom
Codec ID : XVID
Codec ID/Hint : XviD
Duration : 1h 43mn
Bit rate : 1 580 Kbps
Width : 720 pixels
Height : 384 pixels
Display aspect ratio : 1.875
Frame rate : 23.976 fps
Color space : YUV
Chroma subsampling : 4:2:0
Bit depth : 8 bits
Scan type : Progressive
Compression mode : Lossy
Bits/(Pixel*Frame) : 0.238
Stream size : 1.14 GiB (79%)
Writing library : XviD 63
Audio #1
ID : 1
Format : AC-3
Format/Info : Audio Coding 3
Mode extension : CM (complete main)
Codec ID : 2000
Duration : 1h 43mn
Bit rate mode : Constant
Bit rate : 192 Kbps
Channel(s) : 2 channels
Channel positions : Front: L R
Sampling rate : 48.0 KHz
Bit depth : 16 bits
Compression mode : Lossy
Stream size : 142 MiB (10%)
Alignment : Split accross interleaves
Interleave, duration : 42 ms (1.00 video frame)
Interleave, preload duration : 500 ms
Audio #2
ID : 2
Format : AC-3
Format/Info : Audio Coding 3
Mode extension : CM (complete main)
Codec ID : 2000
Duration : 1h 43mn
Bit rate mode : Constant
Bit rate : 224 Kbps
Channel(s) : 2 channels
Channel positions : Front: L R
Sampling rate : 48.0 KHz
Bit depth : 16 bits
Compression mode : Lossy
Stream size : 165 MiB (11%)
Alignment : Split accross interleaves
Interleave, duration : 42 ms (1.00 video frame)
Interleave, preload duration : 500 ms

Скриншоты


_________________
[Торрент-статистика]
[Профиль]  [ЛС] 
Показать сообщения:    
Ответить на тему

Текущее время: Сегодня 05:07

Часовой пояс: GMT + 4



Вы не можете начинать темы
Вы не можете отвечать на сообщения
Вы не можете редактировать свои сообщения
Вы не можете удалять свои сообщения
Вы не можете голосовать в опросах
Вы не можете прикреплять файлы к сообщениям
Вы не можете скачивать файлы