Такси 1-4 / Taxi 1-4 (Жерар Пире / Gerard Pires, Жерар Кравчик / Gerard Krawczyk) (1998, 2000, 2003, 2007) г., Комедия, WEB-DL/BDRip] (Квадралогия) DUB

Ответить на тему
 
Автор
Сообщение

Волк ®

Пол:

Стаж: 8 лет 11 месяцев

Сообщений: 809

Репутация: 316 [+] [-]

Откуда: Армения

Пост 14-Апр-2013 14:08

[Цитировать] 

Такси / Taxi (1998) - Русское название: Такси
Оригинальное название: Taxi
Год выпуска: 1998
Производство: Франция
Жанр: боевик, комедия, криминал
Перевод: Дублированный, Профессиональный многоголосый, профессиональный двухголосый, Авторский одноголосый
Субтитры: Отсутствуют-Дата мировой премьеры: 8 апреля 1998
Дата российской премьеры: -/-
Дата выхода DVD релиза: 13 ноября 2003, «Союз-Видео», ...-Режиссер: Жерар Пирес
Продюсер: Люк Бессон, Лорен Петин, Мишель Петин
Актеры: Сами Насери, Фредерик Дифенталь, Марион Котийяр, Мануэла Гурари, Эмма Сьоберг, Бернар Фарси, Жорж Нери, Гай Нгуен, Морис Мурсия, Сабина Бэйл-Описание фильма:
Молодой таксист Даниэль помешан на быстрой езде. Как ураган проносится он по извилистым улицам Марселя на своем мощном ревущем звере «Пежо», пугая пассажиров и прохожих. Неподкупный полицейский Эмильен вынуждает его помочь в поимке банды грабителей, ускользающих от полиции на своих неуловимых «Мерседесах». И до самого конца не ясно, кто же сможет удержаться на крутом вираже…-Продолжительность: 01:25:31
Качество видео: WEB-DL
Формат: AVI
Видеокодек: XviD
Битрейт видео: ~ 1844 Кбит/сек
Размер кадра: 720x304 (2.37:1)-Аудио #1: Русский: 48 kHz, AC3 Dolby Digital, 3/2 (L,C,R,l,r) + LFE ch, ~384 kbps |Союз-Видео|
Аудио #2: Русский: 48 kHz, AC3 Dolby Digital, 2/0 (L,R) ch, ~192 kbps |Дубляж|
Аудио #3: Русский: 48 kHz, AC3 Dolby Digital, 3/2 (L,C,R,l,r) + LFE ch, ~384 kbps |Пирамида| (отдельно)
Аудио #4: Русский: 48 kHz, AC3 Dolby Digital, 3/2 (L,C,R,l,r) + LFE ch, ~384 kbps |Гаврилов| (отдельно)
Аудио #5: Французский 48 kHz, AC3 Dolby Digital, 3/2 (L,C,R,l,r) + LFE ch, ~384 kbps (отдельно)

MI

Общее
Полное имя : E:\Загрузка\Такси. Квадрология\Taxi 1998\Taxi.1998.avi
Формат : AVI
Формат/Информация : Audio Video Interleave
Размер файла : 1,45 Гбайт
Продолжительность : 1 ч. 25 м.
Общий поток : 2435 Кбит/сек
Программа кодирования : VirtualDubMod 1.5.10.2 (build 2542/release)
Библиотека кодирования : VirtualDubMod build 2542/release
Видео
Идентификатор : 0
Формат : MPEG-4 Visual
Профиль формата : Advanced Simple@L5
Параметр BVOP формата : 2
Параметр QPel формата : Нет
Параметр GMC формата : Без точки перехода
Параметр матрицы формата : Выборочная
Идентификатор кодека : XVID
Идентификатор кодека/Подсказка : XviD
Продолжительность : 1 ч. 25 м.
Битрейт : 1845 Кбит/сек
Ширина : 720 пикселей
Высота : 304 пикселя
Соотношение сторон : 2,35:1
Частота кадров : 25,000 кадров/сек
Цветовое пространство : YUV
Субдискретизация насыщенности : 4:2:0
Битовая глубина : 8 бит
Тип развёртки : Прогрессивная
Метод сжатия : С потерями
Бит/(Пиксели*Кадры) : 0.337
Размер потока : 1,10 Гбайт (76%)
Библиотека кодирования : XviD 65
Аудио #1
Идентификатор : 1
Формат : AC-3
Формат/Информация : Audio Coding 3
Расширение режима : CM (complete main)
Параметр Endianness формата : Big
Идентификатор кодека : 2000
Продолжительность : 1 ч. 25 м.
Вид битрейта : Постоянный
Битрейт : 384 Кбит/сек
Каналы : 6 каналов
Расположение каналов : Front: L C R, Side: L R, LFE
Частота : 48,0 КГц
Битовая глубина : 16 бит
Метод сжатия : С потерями
Размер потока : 235 Мбайт (16%)
Выравнивание : Разделение по промежуткам
Продолжительность промежутка : 40 мс. (1,00 видеокадр)
Время предзагрузки промежутка : 500 мс.
Заголовок : Союз-Видео
Аудио #2
Идентификатор : 2
Формат : AC-3
Формат/Информация : Audio Coding 3
Расширение режима : CM (complete main)
Параметр Endianness формата : Big
Идентификатор кодека : 2000
Продолжительность : 1 ч. 25 м.
Вид битрейта : Постоянный
Битрейт : 192 Кбит/сек
Каналы : 2 канала
Расположение каналов : Front: L R
Частота : 48,0 КГц
Битовая глубина : 16 бит
Метод сжатия : С потерями
Размер потока : 117 Мбайт (8%)
Выравнивание : Разделение по промежуткам
Продолжительность промежутка : 40 мс. (1,00 видеокадр)
Время предзагрузки промежутка : 500 мс.
Заголовок : Дубляж
-

Cкриншоты


-
Такси 2 / Taxi 2 (2000) - «Tårnhøj bilakrobatik på hvinende dæk![Дания]»- Русское название: Такси 2
Оригинальное название: Taxi 2
Год выпуска: 2000
Производство: Франция
Жанр: боевик, комедия, криминал
Перевод: Дублированный, Авторский одноголосый
Субтитры: Отсутствуют-Дата мировой премьеры: 25 марта 2000
Дата российской премьеры: 7 декабря 2000
Дата выхода DVD релиза: 18 января 2007, «CP-Digital»-Режиссер: Жерар Кравчик
Продюсер: Люк Бессон, Лорен Петин, Мишель Петин
Актеры: Сами Насери, Фредерик Дифенталь, Марион Котийяр, Эмма Сьоберг-Описание фильма:
Во Францию прибывает министр обороны Японии. Цель его визита – ознакомиться с французским опытом борьбы с терроризмом и подписать «контракт века» о взаимном сотрудничестве.
Неожиданно, во время показательных выступлений французской полиции, министра обороны похищает гангстерская группировка «Якудза», желающая сорвать заключение наиважнейшего контракта. Даниэль и Эмильен отправляются на поиски высокого гостя. В дело вступает уже хорошо знакомое нам такси…-Продолжительность: 01:28:25
Качество видео: BDRip
Формат: AVI
Видеокодек: XviD
Битрейт видео: ~ 1957 Кбит/сек
Размер кадра: 720x304 (2.37:1)-Аудио #1: Русский: 48 kHz, AC3 Dolby Digital, 3/2 (L,C,R,l,r) + LFE ch, ~384 kbps |Дубляж|
Аудио #2: Русский: 48 kHz, AC3 Dolby Digital, 3/2 (L,C,R,l,r) + LFE ch, ~384 kbps |Гаврилов| (отдельно)
Аудио #3: Французский 48 kHz, AC3 Dolby Digital, 3/2 (L,C,R,l,r) + LFE ch, ~384 kbps (отдельно)-

MI

Общее
Полное имя : E:\Загрузка\Такси. Квадрология\Taxi 2 2000\Taksi.2.2000.avi
Формат : AVI
Формат/Информация : Audio Video Interleave
Размер файла : 1,45 Гбайт
Продолжительность : 1 ч. 28 м.
Общий поток : 2350 Кбит/сек
Название фильма : Такси 2 / Taxi 2 (2000) BDRip
Программа кодирования : VirtualDubMod 1.5.10.3 | www.virtualdub-fr.org || (build 2550/release)
Формат оригинала/Имя : Movie
Примечание : 23.09.2011
Видео
Идентификатор : 0
Формат : MPEG-4 Visual
Профиль формата : Advanced Simple@L5
Параметр BVOP формата : 1
Параметр QPel формата : Нет
Параметр GMC формата : Без точки перехода
Параметр матрицы формата : Выборочная
Идентификатор кодека : XVID
Идентификатор кодека/Подсказка : XviD
Продолжительность : 1 ч. 28 м.
Битрейт : 1957 Кбит/сек
Ширина : 720 пикселей
Высота : 304 пикселя
Соотношение сторон : 2,35:1
Частота кадров : 24,000 кадра/сек
Цветовое пространство : YUV
Субдискретизация насыщенности : 4:2:0
Битовая глубина : 8 бит
Тип развёртки : Прогрессивная
Метод сжатия : С потерями
Бит/(Пиксели*Кадры) : 0.373
Размер потока : 1,21 Гбайт (83%)
Библиотека кодирования : XviD 64
Аудио
Идентификатор : 1
Формат : AC-3
Формат/Информация : Audio Coding 3
Расширение режима : CM (complete main)
Параметр Endianness формата : Big
Идентификатор кодека : 2000
Продолжительность : 1 ч. 28 м.
Вид битрейта : Постоянный
Битрейт : 384 Кбит/сек
Каналы : 6 каналов
Расположение каналов : Front: L C R, Side: L R, LFE
Частота : 48,0 КГц
Битовая глубина : 16 бит
Метод сжатия : С потерями
Размер потока : 243 Мбайт (16%)
Выравнивание : Разделение по промежуткам
Продолжительность промежутка : 42 мс. (1,00 видеокадр)
Время предзагрузки промежутка : 500 мс.
-

Cкриншоты


-
Такси 3 / Taxi 3 (2003) - «No speed limits the next 90 min.»- -Русское название: Такси 3
Оригинальное название: Taxi 3
Год выпуска: 2003
Производство: Франция
Жанр: боевик, комедия, криминал
Перевод: Дублированный, Профессиональный многоголосый
Субтитры: Отсутствуют-Дата мировой премьеры: 29 января 2003
Дата российской премьеры: 27 марта 2003, «Гельварс»
Дата выхода DVD релиза: 21 сентября 2011, «Кармен Видео»-Режиссер: Жерар Кравчик
Продюсер: Люк Бессон, Лорен Петин, Мишель Петин
Актеры: Сами Насери, Фредерик Дифенталь, Марион Котийяр, Эмма Сьоберг-Описание фильма:
Банда налетчиков, переодетых в костюмы Санта-Клаусов совершила уже 35 ограблений в Марселе. Лучшие силы полиции брошены на ее поиски. Эмильен совсем сбился с ног. Беднягу мучают ночные кошмары, а тут еще неожиданно выясняется, что его подружка Петра уже на восьмом месяце беременности!
В канун Рождества, шеф полиции Жибер решает провести крупномасштабную операцию «Снеговик», в которой главная роль будет отведена нашим друзьям. Им предстоит продемонстрировать высший пилотаж на бешеной скорости и поймать зарвавшихся грабителей, проявив завидную находчивость в самых безвыходных ситуациях!-Продолжительность: 01:27:29
Качество видео: BDRip
Формат: AVI
Видеокодек: XviD
Битрейт видео: ~ 1915 Кбит/сек
Размер кадра: 720x304 (2.37:1),-Аудио #1: Русский: 48 kHz, AC3 Dolby Digital, 3/2 (L,C,R,l,r) + LFE ch, ~448 kbps |Дубляж|
Аудио #2: Русский: 48 kHz, AC3 Dolby Digital, 3/2 (L,C,R,l,r) + LFE ch, ~448 kbps |Пирамида| (отдельно)
Аудио #3: Французский 48 kHz, AC3 Dolby Digital, 3/2 (L,C,R,l,r) + LFE ch, ~448 kbps (отдельно)

MI

Общее
Полное имя : E:\Загрузка\Такси. Квадрология\Taxi 3 2003\Taksi.3.2003.avi
Формат : AVI
Формат/Информация : Audio Video Interleave
Размер файла : 1,45 Гбайт
Продолжительность : 1 ч. 27 м.
Общий поток : 2373 Кбит/сек
Название фильма : Taksi.3.2003.RUS.BDRip
Программа кодирования : VirtualDubMod 1.5.10.2 (build 2542/release)
Примечание : 23.02.2011
Видео
Идентификатор : 0
Формат : MPEG-4 Visual
Профиль формата : Advanced Simple@L5
Параметр BVOP формата : 1
Параметр QPel формата : Нет
Параметр GMC формата : Без точки перехода
Параметр матрицы формата : Выборочная
Идентификатор кодека : XVID
Идентификатор кодека/Подсказка : XviD
Продолжительность : 1 ч. 27 м.
Битрейт : 1916 Кбит/сек
Ширина : 720 пикселей
Высота : 304 пикселя
Соотношение сторон : 2,35:1
Частота кадров : 23,976 кадра/сек
Цветовое пространство : YUV
Субдискретизация насыщенности : 4:2:0
Битовая глубина : 8 бит
Тип развёртки : Прогрессивная
Метод сжатия : С потерями
Бит/(Пиксели*Кадры) : 0.365
Размер потока : 1,17 Гбайт (81%)
Библиотека кодирования : XviD 57
Аудио
Идентификатор : 1
Формат : AC-3
Формат/Информация : Audio Coding 3
Расширение режима : CM (complete main)
Параметр Endianness формата : Big
Идентификатор кодека : 2000
Продолжительность : 1 ч. 27 м.
Вид битрейта : Постоянный
Битрейт : 448 Кбит/сек
Каналы : 6 каналов
Расположение каналов : Front: L C R, Side: L R, LFE
Частота : 48,0 КГц
Битовая глубина : 16 бит
Метод сжатия : С потерями
Размер потока : 280 Мбайт (19%)
Выравнивание : Разделение по промежуткам
Продолжительность промежутка : 42 мс. (1,00 видеокадр)
Время предзагрузки промежутка : 500 мс.
-

Cкриншоты

-Такси 4 / Taxi 4 (2007) - -Русское название: Такси 4
Оригинальное название: Taxi 4
Год выпуска: 2007
Производство: Франция
Жанр: боевик, комедия, криминал
Перевод: Дублированный, Авторский двухголосый, Авторский одноголосый
Субтитры: Отсутствуют-Дата мировой премьеры: 14 февраля 2007
Дата российской премьеры: 6 марта 2007, «Централ Партнершип»
Дата выхода DVD релиза: 5 апреля 2007, «CP-Digital», ...-Режиссер: Жерар Кравчик
Продюсер: Люк Бессон, Дидье Хорау, Франк Лебретон
Актеры: Сами Насери, Фредерик Дифенталь, Марион Котийяр, Эмма Виклунд (Сьоберг)-Описание фильма:
Спустя пять лет после событий третьего фильма, Даниэль и Эмильен снова вместе и мы вновь имеем возможность наблюдать за их приключениями на этот раз на Лазурном берегу.Полицейский комиссариат лихорадит. В Марсель из Бельгии присылают опаснейшего преступника, который на следующий день должен быть переправлен в желтую жаркую Африку на праведный суд. Несмотря на то, что бандита транспортируют и содержат под стражей в наряде аквалангиста, подозрительно напоминающем смирительную рубашку Доктора Лектера из фильма «Молчание ягнят», ему удается обмануть бдительность копов, выйти из допра и даже организовать грабеж банка в Монте-Карло. Правда, в качестве спецагента в банде Бельгийца принимает непосредственное участие специалист контрразведки, по совместительству - жена центрового персонажа, так что у спецслужб все под колпаком. Но, тем не менее, тотальное разгильдяйство и глупость ажанов дает возможность гангстерам потрепыхаться и повеселить зрителей картинками из блатной жизни марсельско-бельгийского дна. А учитывая тот факт, что все практически полисмены во Франции балуются травкой, то задержать веселых убийц будет не так-то просто. Правда, с помощи лома, топора и такой-то матери правосудие для всех восторжествует.-Продолжительность: 01:30:53
Качество видео: BDRip
Формат: AVI
Видеокодек: XviD
Битрейт видео: ~ 1891 Кбит/сек
Размер кадра: 720x304 (2.37:1)-Аудио #1: Русский: 48 kHz, AC3 Dolby Digital, 3/2 (L,C,R,l,r) + LFE ch, ~384 kbps |Дубляж|
Аудио #2: Русский: 48 kHz, AC3 Dolby Digital, 3/2 (L,C,R,l,r) + LFE ch, ~384 kbps |П.Гланц и И.Королева | (отдельно)
Аудио #3: Русский: 48 kHz, AC3 Dolby Digital, 3/2 (L,C,R,l,r) + LFE ch, ~384 kbps |А.Гаврилова| (отдельно)
Аудио #4: Французский 48 kHz, AC3 Dolby Digital, 3/2 (L,C,R,l,r) + LFE ch, ~384 kbps (отдельно)
-

MI

Общее
Полное имя : E:\Загрузка\Такси. Квадрология\Taxi 4 2007\Taksi.4.TC.2007.avi
Формат : AVI
Формат/Информация : Audio Video Interleave
Размер файла : 1,45 Гбайт
Продолжительность : 1 ч. 30 м.
Общий поток : 2285 Кбит/сек
Название фильма : Такси 4 / Taxi 4 / T4xi (2007) BDRip
Программа кодирования : VirtualDubMod 1.5.10.2 (build 2542/release)
Примечание : 06.04.2011
Видео
Идентификатор : 0
Формат : MPEG-4 Visual
Профиль формата : Advanced Simple@L5
Параметр BVOP формата : 1
Параметр QPel формата : Нет
Параметр GMC формата : Без точки перехода
Параметр матрицы формата : Выборочная
Идентификатор кодека : XVID
Идентификатор кодека/Подсказка : XviD
Продолжительность : 1 ч. 30 м.
Битрейт : 1892 Кбит/сек
Ширина : 720 пикселей
Высота : 304 пикселя
Соотношение сторон : 2,35:1
Частота кадров : 23,976 кадра/сек
Цветовое пространство : YUV
Субдискретизация насыщенности : 4:2:0
Битовая глубина : 8 бит
Тип развёртки : Прогрессивная
Метод сжатия : С потерями
Бит/(Пиксели*Кадры) : 0.361
Размер потока : 1,20 Гбайт (83%)
Библиотека кодирования : XviD 62
Аудио
Идентификатор : 1
Формат : AC-3
Формат/Информация : Audio Coding 3
Расширение режима : CM (complete main)
Параметр Endianness формата : Big
Идентификатор кодека : 2000
Продолжительность : 1 ч. 30 м.
Вид битрейта : Постоянный
Битрейт : 384 Кбит/сек
Каналы : 6 каналов
Расположение каналов : Front: L C R, Side: L R, LFE
Частота : 48,0 КГц
Битовая глубина : 16 бит
Метод сжатия : С потерями
Размер потока : 250 Мбайт (17%)
Выравнивание : Разделение по промежуткам
Продолжительность промежутка : 42 мс. (1,00 видеокадр)
Время предзагрузки промежутка : 500 мс.

Cкриншоты


-
Приятного просмотра
и не забываем говорить Спасибо)
-Время раздачи: 24/7

_________________
Мои раздачи
[Торрент-статистика]
[Профиль]  [ЛС] 

ArtZak

Пол:

Стаж: 8 лет 11 месяцев

Сообщений: 2833

Репутация: 1366 [+] [-]

Откуда: Россия

Пост 15-Апр-2013 00:56 (спустя 10 часов)

[Цитировать] 

Волк, первый откликнувшийся! Спасибо! А то сам хотел заняться - никто из пользователей не захотел возиться....
[Торрент-статистика]
[Профиль]  [ЛС] 

Волк ®

Пол:

Стаж: 8 лет 11 месяцев

Сообщений: 809

Репутация: 316 [+] [-]

Откуда: Армения

Пост 16-Апр-2013 00:20 (спустя 23 часа)

[Цитировать] 

ArtZak, Это наша работа по ходу дела так что)!!Токо вот данный заказчик что-то не рветса качать раздачу.

_________________
Мои раздачи
[Торрент-статистика]
[Профиль]  [ЛС] 

ArtZak

Пол:

Стаж: 8 лет 11 месяцев

Сообщений: 2833

Репутация: 1366 [+] [-]

Откуда: Россия

Пост 16-Апр-2013 00:52 (спустя 32 минуты)

[Цитировать] 

Волк, да видать не хватило ему терпения - ушел искать на другие трекеры...
[Торрент-статистика]
[Профиль]  [ЛС] 

Волк ®

Пол:

Стаж: 8 лет 11 месяцев

Сообщений: 809

Репутация: 316 [+] [-]

Откуда: Армения

Пост 16-Апр-2013 20:17 (спустя 19 часов)

[Цитировать] 

ArtZak, Не думаю что можно везде найти bt

_________________
Мои раздачи
[Торрент-статистика]
[Профиль]  [ЛС] 
Показать сообщения:    
Ответить на тему

Текущее время: Сегодня 12:37

Часовой пояс: GMT + 4



Вы не можете начинать темы
Вы не можете отвечать на сообщения
Вы не можете редактировать свои сообщения
Вы не можете удалять свои сообщения
Вы не можете голосовать в опросах
Вы не можете прикреплять файлы к сообщениям
Вы не можете скачивать файлы