Матрица: Трилогия / The Matrix: Trilogy (Ларри и Эндрю Вачовски / Larry and Andrew Wachowski) [1999, 2003, США, фантастика боевик, HDDVDRip-AVC] Dub + Original (Eng) + Sub (Rus, Ukr, Eng)

Ответить на тему
 
Автор
Сообщение

Волк ®

Пол:

Стаж: 8 лет 11 месяцев

Сообщений: 809

Репутация: 316 [+] [-]

Откуда: Армения

Пост 28-Янв-2020 17:56

[Цитировать] 

-Матрица: Трилогия / The Matrix: Trilogy Страна: США
Жанр: фантастика, боевик
Год выпуска: 1999 - 2003
Продолжительность: 02:17:05, 02:18:17, 02:09:15-Перевод: профессиональный (полное дублирование)-Субтитры: английские, русские, украинские-Оригинальная аудиодорожка: английский -Режиссер: Ларри и Эндрю Вачовски / Larry and Andrew Wachowski-

Матрица / The Matrix (1999)

Матрица / The Matrix Страна: США
Жанр: фантастика, боевик
Год выпуска: 1999
Продолжительность: 02:17:05-Субтитры: английские, русские, украинские
Оригинальная аудиодорожка: английский -В ролях-Киану Ривз, Лоуренс Фишбёрн, Керри-Энн Мосс, Хьюго Уивинг, Глория Фостер, Джо Пантолиано, Маркус Чонг, Пол Годдард, Роберт Тэйлор, Джулиэн Араханга, Мэтт Доран, Белинда МакКлори, Энтони Рэй Паркер, Стив Додд
-ОПИСАНИЕ-Жизнь Томаса Андерсона разделена на две части: днем он работает программистом в крупной компании, а в свободное время бороздит сетевое пространство, где известен под именем Нео. Если днем для него существуют условности, то ночью он - хакер с безграничными возможностями. Но наступит день, когда ему откроется страшная правда: все, что он знал и видел, - иллюзия. Наша реальность - это лишь цифровой код, и мир давно захвачен искусственным интеллектом, а люди порабощены всесильными Машинами. Нео должен выбрать: свобода разума и жестокая борьба за будущее человечества или сладкий обман Матрицы.
- -Качество видео: HDDVDRip
Исходное видео: HDDVD |HDClub|-Контейнер: MKV-Видео: AVC, 1152x480 (2,40:1), ~4136 kbps, 23,976 fps,
Аудио: АС-3, 384 kbps, Dolby Digital, 3/2 (L,C,R,l,r) + LFE ch, 48 KHz |Дубляж|
Аудио: АС-3, 384 kbps, Dolby Digital, 3/2 (L,C,R,l,r) + LFE ch, 48 KHz |Оригинал|
Формат субтитров: softsub (SRT)
Главы: есть--

MediaInfo

x264

Crop(0, 140, -0, -140)
FillMargins(1, 1, 1, 1)
Spline144Resize(1152, 480)
Используем готовый файл: J:\Temp\0121_0.ac3
VIDEO ENCODING
------------------------------
Encoding video to: J:\Temp\0127.264
x264 Q17.8 1152x480 23.976fps (197223 frames)
avs4x26x.exe: -L x264_64.exe --crf 17.8 --preset veryslow --profile high --level 4.1 --ref 12 --aq-mode 3 --aq-strength 0.75 --deblock -3:-2 --merange 32 --bframes 14 --direct spatial --subme 11 --no-mbtree --keyint 240 --colorprim bt709 --transfer bt709 --colormatrix bt709 --vbv-bufsize 62500 --vbv-maxrate 50000 --partitions p8x8,b8x8,i4x4,i8x8 --sar 1:1 --output "J:\Temp\0127.264" "J:\Temp\0127.avs"
raw [info]: 1152x480p 1:1 @ 24000/1001 fps (cfr)
x264 [info]: using SAR=1/1
x264 [info]: using cpu capabilities: MMX2 SSE2Fast LZCNT
x264 [info]: profile High, level 4.1
x264 [info]: cabac=1 ref=12 deblock=1:-3:-2 analyse=0x3:0x113 me=umh subme=11 psy=1 fade_compensate=0.00 psy_rd=1.00:0.00 mixed_ref=1 me_range=32 chroma_me=1 trellis=2 8x8dct=1 cqm=0 deadzone=21,11 fast_pskip=1 chroma_qp_offset=-2 threads=4 lookahead_threads=1 sliced_threads=0 nr=0 decimate=1 interlaced=0 bluray_compat=0 constrained_intra=0 bframes=14 b_pyramid=2 b_adapt=2 b_bias=0 direct=1 weightb=1 open_gop=0 weightp=2 keyint=240 keyint_min=23 scenecut=40 intra_refresh=0 rc_lookahead=60 rc=crf mbtree=0 crf=17.8000 qcomp=0.60 qpmin=0 qpmax=69 qpstep=4 vbv_maxrate=50000 vbv_bufsize=62500 crf_max=0.0 nal_hrd=none filler=0 ip_ratio=1.40 pb_ratio=1.30 aq=3:0.75
x264 [info]: frame I:1585 Avg QP:16.17 size: 78983
x264 [info]: frame P:39041 Avg QP:17.44 size: 37676
x264 [info]: frame B:156597 Avg QP:20.05 size: 17633
x264 [info]: consecutive B-frames: 1.7% 1.8% 5.3% 15.5% 18.0% 38.7% 7.5% 4.8% 1.8% 2.1% 0.8% 0.5% 0.3% 0.4% 0.7%
x264 [info]: mb I I16..4: 2.9% 86.5% 10.7%
x264 [info]: mb P I16..4: 0.4% 18.9% 1.1% P16..4: 26.7% 36.6% 13.9% 0.0% 0.0% skip: 2.5%
x264 [info]: mb B I16..4: 0.0% 3.7% 0.1% B16..8: 37.5% 23.1% 4.9% direct: 7.2% skip:23.5% L0:45.1% L1:42.6% BI:12.4%
x264 [info]: 8x8 transform intra:93.6% inter:60.2%
x264 [info]: coded y,uvDC,uvAC intra: 97.5% 85.1% 69.0% inter: 38.7% 27.7% 7.2%
x264 [info]: i16 v,h,dc,p: 28% 15% 7% 49%
x264 [info]: i8 v,h,dc,ddl,ddr,vr,hd,vl,hu: 8% 7% 11% 11% 14% 13% 12% 12% 12%
x264 [info]: i4 v,h,dc,ddl,ddr,vr,hd,vl,hu: 10% 7% 4% 10% 16% 15% 14% 12% 12%
x264 [info]: i8c dc,h,v,p: 46% 22% 16% 17%
x264 [info]: Weighted P-Frames: Y:7.8% UV:5.2%
x264 [info]: ref P L0: 40.9% 8.1% 18.0% 7.7% 6.5% 4.7% 4.2% 2.3% 2.2% 1.8% 1.8% 1.6% 0.2% 0.0%
x264 [info]: ref B L0: 68.5% 12.3% 6.4% 3.4% 2.6% 2.2% 1.7% 1.1% 0.9% 0.6% 0.2%
x264 [info]: ref B L1: 93.2% 6.8%
x264 [info]: kb/s:4237.80
Complete name : C:\Users\CW\Desktop\матрица 1\The_Matrix.(1999).HDDVDRip_x264_cw.mkv
Format : Matroska
Format version : Version 2
File size : 4.79 GiB
Duration : 2 h 17 min
Overall bit rate : 5 004 kb/s
Movie name : The Matrix (1999)
Encoded date : UTC 2017-08-01 18:58:52
Writing application : mkvmerge v6.9.1 ('Blue Panther') 32bit built on Apr 18 2014 18:15:44
Writing library : libebml v1.3.0 + libmatroska v1.4.1
Cover : Yes
Attachments : cover.jpg
Video
ID : 1
Format : AVC
Format/Info : Advanced Video Codec
Format profile : High@L4.1
Format settings, CABAC : Yes
Format settings, ReFrames : 12 frames
Codec ID : V_MPEG4/ISO/AVC
Duration : 2 h 17 min
Bit rate : 4 136 kb/s
Width : 1 152 pixels
Height : 480 pixels
Display aspect ratio : 2.40:1
Frame rate mode : Constant
Frame rate : 23.976 (24000/1001) FPS
Color space : YUV
Chroma subsampling : 4:2:0
Bit depth : 8 bits
Scan type : Progressive
Bits/(Pixel*Frame) : 0.312
Stream size : 3.96 GiB (83%)
Title : The_Matrix.(1999).HDDVDRip_x264_cw
Writing library : x264 core 152 r2851kMod ba24899
Encoding settings : cabac=1 / ref=12 / deblock=1:-3:-2 / analyse=0x3:0x113 / me=umh / subme=11 / psy=1 / fade_compensate=0.00 / psy_rd=1.00:0.00 / mixed_ref=1 / me_range=32 / chroma_me=1 / trellis=2 / 8x8dct=1 / cqm=0 / deadzone=21,11 / fast_pskip=1 / chroma_qp_offset=-2 / threads=4 / lookahead_threads=1 / sliced_threads=0 / nr=0 / decimate=1 / interlaced=0 / bluray_compat=0 / constrained_intra=0 / bframes=14 / b_pyramid=2 / b_adapt=2 / b_bias=0 / direct=1 / weightb=1 / open_gop=0 / weightp=2 / keyint=240 / keyint_min=23 / scenecut=40 / intra_refresh=0 / rc_lookahead=60 / rc=crf / mbtree=0 / crf=17.8000 / qcomp=0.60 / qpmin=0 / qpmax=69 / qpstep=4 / vbv_maxrate=50000 / vbv_bufsize=62500 / crf_max=0.0 / nal_hrd=none / filler=0 / ip_ratio=1.40 / pb_ratio=1.30 / aq=3:0.75
Language : English
Default : Yes
Forced : No
Color range : Limited
Color primaries : BT.709
Transfer characteristics : BT.709
Matrix coefficients : BT.709
Audio #1
ID : 2
Format : AC-3
Format/Info : Audio Coding 3
Format settings, Endianness : Big
Codec ID : A_AC3
Duration : 2 h 17 min
Bit rate mode : Constant
Bit rate : 384 kb/s
Channel(s) : 6 channels
Channel positions : Front: L C R, Side: L R, LFE
Sampling rate : 48.0 kHz
Frame rate : 31.250 FPS (1536 spf)
Bit depth : 16 bits
Compression mode : Lossy
Stream size : 377 MiB (8%)
Title : Dub (Blu-Ray CEE)
Language : Russian
Service kind : Complete Main
Default : Yes
Forced : No
Audio #2
ID : 3
Format : AC-3
Format/Info : Audio Coding 3
Format settings, Endianness : Big
Codec ID : A_AC3
Duration : 2 h 17 min
Bit rate mode : Constant
Bit rate : 384 kb/s
Channel(s) : 6 channels
Channel positions : Front: L C R, Side: L R, LFE
Sampling rate : 48.0 kHz
Frame rate : 31.250 FPS (1536 spf)
Bit depth : 16 bits
Compression mode : Lossy
Stream size : 377 MiB (8%)
Title : Original
Language : English
Service kind : Complete Main
Default : No
Forced : No
Text #1
ID : 4
Format : UTF-8
Codec ID : S_TEXT/UTF8
Codec ID/Info : UTF-8 Plain Text
Title : HDDVD
Language : Russian
Default : No
Forced : No
Text #2
ID : 5
Format : UTF-8
Codec ID : S_TEXT/UTF8
Codec ID/Info : UTF-8 Plain Text
Language : Ukrainian
Default : No
Forced : No
Text #3
ID : 6
Format : UTF-8
Codec ID : S_TEXT/UTF8
Codec ID/Info : UTF-8 Plain Text
Language : English
Default : No
Forced : No
Menu
00:00:00.000 : :Chapter 01
00:05:00.000 : :Chapter 02
00:10:00.000 : :Chapter 03
00:15:00.000 : :Chapter 04
00:20:00.000 : :Chapter 05
00:25:00.000 : :Chapter 06
00:30:00.000 : :Chapter 07
00:35:00.000 : :Chapter 08
00:40:00.000 : :Chapter 09
00:45:00.000 : :Chapter 10
00:50:00.000 : :Chapter 11
00:55:00.000 : :Chapter 12
01:00:00.000 : :Chapter 13
01:05:00.000 : :Chapter 14
01:10:00.000 : :Chapter 15
01:15:00.000 : :Chapter 16
01:20:00.000 : :Chapter 17
01:25:00.000 : :Chapter 18
01:30:00.000 : :Chapter 19
01:35:00.000 : :Chapter 20
01:40:00.000 : :Chapter 21
01:45:00.000 : :Chapter 22
01:50:00.000 : :Chapter 23
01:55:00.000 : :Chapter 24
02:00:00.000 : :Chapter 25
02:05:00.000 : :Chapter 26
02:10:00.000 : :Chapter 27
02:15:00.000 : :Chapter 28

Скриншоты

Сравнение с исходником

[font=serif1] старый || новый рип || исходник
- - - -


Матрица: Перезагрузка / The Matrix Reloaded (2003)

Матрица: Перезагрузка / The Matrix Reloaded Страна: США
Жанр: Фантастика Боевик
Год выпуска: 2003
Продолжительность: 02:18:17-Субтитры: английские, русские, украинские
Оригинальная аудиодорожка: английский -В ролях-Киану Ривз, Кэрри-Энн Мосс, Лоренс Фишбёрн, Хьюго Уивинг, Моника Беллуччи, Ламбер Вильсон, Энтони Вон, Гарри Дж. Ленникс, Рэндолл Дак Ким, Глория Фостер
-ОПИСАНИЕ-Борцы за свободу Нео, Тринити и Морфеус продолжают руководить восстанием людей против Армии Машин. Для уничтожения системы репрессий и эксплуатации они вынуждены прибегнуть не только к арсеналу превосходного оружия, но и к своим выдающимся навыкам.
Участие в миссии по спасению человеческой расы от ее полного истребления приносит им более глубокое понимание конструкции Матрицы и осознание центральной роли Нео в судьбе человечества.
- -Качество видео: HDDVDRip
Исходное видео: HDDVD |HDClub|-Контейнер: MKV-Видео: AVC, 1152x480 (2,40:1), ~4443 kbps, 23,976 fps,
Аудио: АС-3, 384 kbps, Dolby Digital, 3/2 (L,C,R,l,r) + LFE ch, 48 KHz |Дубляж|
Аудио: АС-3, 384 kbps, Dolby Digital, 3/2 (L,C,R,l,r) + LFE ch, 48 KHz |Оригинал|
Формат субтитров: softsub (SRT)
Главы: есть--

MediaInfo

x264

Crop(0, 140, -0, -140)
FillMargins(1, 1, 1, 1)
Spline144Resize(1152, 480)
Используем готовый файл: J:\Temp\0128_0.ac3
VIDEO ENCODING
------------------------------
Encoding video to: J:\Temp\0132.264
x264 Q16.6 1152x480 23.976fps (198931 frames)
avs4x26x.exe: -L x264_64.exe --crf 16.6 --preset veryslow --profile high --level 4.1 --ref 12 --aq-mode 3 --aq-strength 0.75 --deblock -3:-2 --merange 32 --bframes 14 --direct spatial --subme 11 --no-mbtree --keyint 240 --colorprim bt709 --transfer bt709 --colormatrix bt709 --vbv-bufsize 62500 --vbv-maxrate 50000 --partitions p8x8,b8x8,i4x4,i8x8 --sar 1:1 --output "J:\Temp\0132.264" "J:\Temp\0132.avs"
raw [info]: 1152x480p 1:1 @ 24000/1001 fps (cfr)
x264 [info]: using SAR=1/1
x264 [info]: using cpu capabilities: MMX2 SSE2Fast LZCNT
x264 [info]: profile High, level 4.1
x264 [info]: cabac=1 ref=12 deblock=1:-3:-2 analyse=0x3:0x113 me=umh subme=11 psy=1 fade_compensate=0.00 psy_rd=1.00:0.00 mixed_ref=1 me_range=32 chroma_me=1 trellis=2 8x8dct=1 cqm=0 deadzone=21,11 fast_pskip=1 chroma_qp_offset=-2 threads=4 lookahead_threads=1 sliced_threads=0 nr=0 decimate=1 interlaced=0 bluray_compat=0 constrained_intra=0 bframes=14 b_pyramid=2 b_adapt=2 b_bias=0 direct=1 weightb=1 open_gop=0 weightp=2 keyint=240 keyint_min=23 scenecut=40 intra_refresh=0 rc_lookahead=60 rc=crf mbtree=0 crf=16.6000 qcomp=0.60 qpmin=0 qpmax=69 qpstep=4 vbv_maxrate=50000 vbv_bufsize=62500 crf_max=0.0 nal_hrd=none filler=0 ip_ratio=1.40 pb_ratio=1.30 aq=3:0.75
x264 [info]: frame I:1764 Avg QP:15.11 size: 86569
x264 [info]: frame P:41409 Avg QP:16.49 size: 40751
x264 [info]: frame B:155758 Avg QP:18.78 size: 18462
x264 [info]: consecutive B-frames: 2.1% 2.5% 7.0% 18.2% 17.0% 35.1% 6.1% 5.8% 1.8% 2.0% 0.7% 0.9% 0.3% 0.4% 0.2%
x264 [info]: mb I I16..4: 3.0% 85.9% 11.1%
x264 [info]: mb P I16..4: 0.6% 23.5% 1.5% P16..4: 23.1% 33.1% 15.2% 0.0% 0.0% skip: 3.0%
x264 [info]: mb B I16..4: 0.1% 3.0% 0.2% B16..8: 35.0% 27.7% 6.4% direct: 8.9% skip:18.7% L0:44.3% L1:39.6% BI:16.1%
x264 [info]: 8x8 transform intra:91.1% inter:57.3%
x264 [info]: coded y,uvDC,uvAC intra: 95.7% 91.2% 76.7% inter: 45.8% 33.9% 11.4%
x264 [info]: i16 v,h,dc,p: 49% 13% 6% 32%
x264 [info]: i8 v,h,dc,ddl,ddr,vr,hd,vl,hu: 8% 8% 10% 10% 14% 12% 13% 12% 13%
x264 [info]: i4 v,h,dc,ddl,ddr,vr,hd,vl,hu: 8% 9% 8% 8% 16% 14% 14% 10% 13%
x264 [info]: i8c dc,h,v,p: 44% 24% 16% 16%
x264 [info]: Weighted P-Frames: Y:5.4% UV:3.5%
x264 [info]: ref P L0: 40.7% 9.7% 17.6% 7.6% 6.4% 4.5% 4.1% 2.3% 2.2% 1.7% 1.7% 1.5% 0.1% 0.0%
x264 [info]: ref B L0: 71.1% 11.7% 5.8% 3.2% 2.4% 1.9% 1.5% 0.9% 0.8% 0.5% 0.2%
x264 [info]: ref B L1: 94.0% 6.0%
x264 [info]: kb/s:4446.94
Complete name : J:\The Matrix Trilogy\The.Matrix.Reloaded.(2003)_HDDVDRip_x264_cw.mkv
Format : Matroska
Format version : Version 2
File size : 5.14 GiB
Duration : 2 h 18 min
Overall bit rate : 5 317 kb/s
Movie name : Матрица: Перезагрузка / The Matrix Reloaded (2003)
Encoded date : UTC 2017-08-05 13:18:47
Writing application : mkvmerge v6.9.1 ('Blue Panther') 32bit built on Apr 18 2014 18:15:44
Writing library : libebml v1.3.0 + libmatroska v1.4.1
Cover : Yes
Attachments : cover.jpg
Video
ID : 1
Format : AVC
Format/Info : Advanced Video Codec
Format profile : High@L4.1
Format settings, CABAC : Yes
Format settings, ReFrames : 12 frames
Codec ID : V_MPEG4/ISO/AVC
Duration : 2 h 18 min
Bit rate : 4 443 kb/s
Width : 1 152 pixels
Height : 480 pixels
Display aspect ratio : 2.40:1
Frame rate mode : Constant
Frame rate : 23.976 (24000/1001) FPS
Color space : YUV
Chroma subsampling : 4:2:0
Bit depth : 8 bits
Scan type : Progressive
Bits/(Pixel*Frame) : 0.335
Stream size : 4.29 GiB (84%)
Title : The.Matrix.Reloaded.(2003)_HDDVDRip_x264_cw
Writing library : x264 core 152 r2851kMod ba24899
Encoding settings : cabac=1 / ref=12 / deblock=1:-3:-2 / analyse=0x3:0x113 / me=umh / subme=11 / psy=1 / fade_compensate=0.00 / psy_rd=1.00:0.00 / mixed_ref=1 / me_range=32 / chroma_me=1 / trellis=2 / 8x8dct=1 / cqm=0 / deadzone=21,11 / fast_pskip=1 / chroma_qp_offset=-2 / threads=4 / lookahead_threads=1 / sliced_threads=0 / nr=0 / decimate=1 / interlaced=0 / bluray_compat=0 / constrained_intra=0 / bframes=14 / b_pyramid=2 / b_adapt=2 / b_bias=0 / direct=1 / weightb=1 / open_gop=0 / weightp=2 / keyint=240 / keyint_min=23 / scenecut=40 / intra_refresh=0 / rc_lookahead=60 / rc=crf / mbtree=0 / crf=16.6000 / qcomp=0.60 / qpmin=0 / qpmax=69 / qpstep=4 / vbv_maxrate=50000 / vbv_bufsize=62500 / crf_max=0.0 / nal_hrd=none / filler=0 / ip_ratio=1.40 / pb_ratio=1.30 / aq=3:0.75
Language : English
Default : Yes
Forced : No
Color range : Limited
Color primaries : BT.709
Transfer characteristics : BT.709
Matrix coefficients : BT.709
Audio #1
ID : 2
Format : AC-3
Format/Info : Audio Coding 3
Format settings, Endianness : Big
Codec ID : A_AC3
Duration : 2 h 18 min
Bit rate mode : Constant
Bit rate : 384 kb/s
Channel(s) : 6 channels
Channel positions : Front: L C R, Side: L R, LFE
Sampling rate : 48.0 kHz
Frame rate : 31.250 FPS (1536 spf)
Bit depth : 16 bits
Compression mode : Lossy
Stream size : 380 MiB (7%)
Title : Dub
Language : Russian
Service kind : Complete Main
Default : Yes
Forced : No
Audio #2
ID : 3
Format : AC-3
Format/Info : Audio Coding 3
Format settings, Endianness : Big
Codec ID : A_AC3
Duration : 2 h 18 min
Bit rate mode : Constant
Bit rate : 384 kb/s
Channel(s) : 6 channels
Channel positions : Front: L C R, Side: L R, LFE
Sampling rate : 48.0 kHz
Frame rate : 31.250 FPS (1536 spf)
Bit depth : 16 bits
Compression mode : Lossy
Stream size : 380 MiB (7%)
Title : Original
Language : English
Service kind : Complete Main
Default : No
Forced : No
Text #1
ID : 4
Format : UTF-8
Codec ID : S_TEXT/UTF8
Codec ID/Info : UTF-8 Plain Text
Title : HDDVD
Language : Russian
Default : No
Forced : No
Text #2
ID : 5
Format : UTF-8
Codec ID : S_TEXT/UTF8
Codec ID/Info : UTF-8 Plain Text
Language : Ukrainian
Default : No
Forced : No
Text #3
ID : 6
Format : UTF-8
Codec ID : S_TEXT/UTF8
Codec ID/Info : UTF-8 Plain Text
Language : English
Default : No
Forced : No
Menu
00:00:00.000 : en:CHAPTER 01
00:03:50.230 : en:CHAPTER 02
00:08:55.368 : en:CHAPTER 03
00:12:16.903 : en:CHAPTER 04
00:16:24.317 : en:CHAPTER 05
00:19:43.182 : en:CHAPTER 06
00:23:29.408 : en:CHAPTER 07
00:27:26.812 : en:CHAPTER 08
00:32:01.253 : en:CHAPTER 09
00:33:43.188 : en:CHAPTER 10
00:37:57.442 : en:CHAPTER 11
00:40:55.620 : en:CHAPTER 12
00:43:44.956 : en:CHAPTER 13
00:50:42.706 : en:CHAPTER 14
00:55:08.472 : en:CHAPTER 15
01:00:03.099 : en:CHAPTER 16
01:02:49.766 : en:CHAPTER 17
01:08:52.295 : en:CHAPTER 18
01:13:06.882 : en:CHAPTER 19
01:16:21.410 : en:CHAPTER 20
01:20:31.827 : en:CHAPTER 21
01:22:47.129 : en:CHAPTER 22
01:26:12.501 : en:CHAPTER 23
01:29:52.887 : en:CHAPTER 24
01:32:50.899 : en:CHAPTER 25
01:37:10.825 : en:CHAPTER 26
01:40:51.379 : en:CHAPTER 27
01:44:57.791 : en:CHAPTER 28
01:48:12.152 : en:CHAPTER 29
01:52:25.572 : en:CHAPTER 30
01:55:42.936 : en:CHAPTER 31
01:57:37.550 : en:CHAPTER 32
02:01:51.471 : en:CHAPTER 33
02:04:18.451 : en:CHAPTER 34
02:07:04.116 : en:CHAPTER 35
02:16:29.681 : en:CHAPTER 36

Скриншоты

Сравнение с исходником

[font=serif1] старый || новый рип || исходник
- - -


Матрица: Революция / The Matrix Revolutions (2003)

Матрица: Революция / The Matrix Revolutions Страна: США
Жанр: Фантастика Боевик
Год выпуска: 2003
Продолжительность: 02:09:15-Субтитры: английские, русские, украинские
Оригинальная аудиодорожка: английский -В ролях- Киану Ривз, Кэрри-Энн Мосс, Лоренс Фишбёрн, Хьюго Уивинг, Моника Беллуччи, Брюс Спенс, Джада Пинкетт Смит, Хэролд Перрино, Гарри Дж. Ленникс, Хельмут Бакайтис-ОПИСАНИЕ-Пока армия Машин пытается уничтожить Зион, его жители из последних сил держат оборону. Но удастся ли им предотвратить полное вторжение в город кишащей орды беспощадных машин до того, как Нео соберет все свои силы и положит конец войне?
- -Качество видео: HDDVDRip
Исходное видео: HDDVD |HDClub|-Контейнер: MKV-Видео: AVC, 1152x480 (2,40:1), ~4157 kbps, 23,976 fps,
Аудио: АС-3, 384 kbps, Dolby Digital, 3/2 (L,C,R,l,r) + LFE ch, 48 KHz |Дубляж|
Аудио: АС-3, 384 kbps, Dolby Digital, 3/2 (L,C,R,l,r) + LFE ch, 48 KHz |Оригинал|
Формат субтитров: softsub (SRT)
Главы: есть--

MediaInfo

x264

Crop(0, 140, -0, -140)
FillMargins(1, 1, 1, 1)
Spline144Resize(1152, 480)
Используем готовый файл: K:\Temp\0158_0.ac3
VIDEO ENCODING
------------------------------
Encoding video to: K:\Temp\0158.264
x264 Q17.4 1152x480 23.976fps (185956 frames)
avs4x26x.exe: -L x264_64.exe --crf 17.4 --preset veryslow --profile high --level 4.1 --ref 12 --aq-mode 3 --aq-strength 0.8 --deblock -3:-2 --merange 32 --bframes 14 --direct spatial --subme 11 --no-mbtree --keyint 240 --colorprim bt709 --transfer bt709 --colormatrix bt709 --vbv-bufsize 62500 --vbv-maxrate 50000 --partitions p8x8,b8x8,i4x4,i8x8 --sar 1:1 --output "K:\Temp\0158.264" "K:\Temp\0158.avs"
raw [info]: 1152x480p 1:1 @ 24000/1001 fps (cfr)
x264 [info]: using SAR=1/1
x264 [info]: using cpu capabilities: MMX2 SSE2Fast LZCNT
x264 [info]: profile High, level 4.1
x264 [info]: cabac=1 ref=12 deblock=1:-3:-2 analyse=0x3:0x113 me=umh subme=11 psy=1 fade_compensate=0.00 psy_rd=1.00:0.00 mixed_ref=1 me_range=32 chroma_me=1 trellis=2 8x8dct=1 cqm=0 deadzone=21,11 fast_pskip=1 chroma_qp_offset=-2 threads=4 lookahead_threads=1 sliced_threads=0 nr=0 decimate=1 interlaced=0 bluray_compat=0 constrained_intra=0 bframes=14 b_pyramid=2 b_adapt=2 b_bias=0 direct=1 weightb=1 open_gop=0 weightp=2 keyint=240 keyint_min=23 scenecut=40 intra_refresh=0 rc_lookahead=60 rc=crf mbtree=0 crf=17.4000 qcomp=0.60 qpmin=0 qpmax=69 qpstep=4 vbv_maxrate=50000 vbv_bufsize=62500 crf_max=0.0 nal_hrd=none filler=0 ip_ratio=1.40 pb_ratio=1.30 aq=3:0.80
x264 [info]: frame I:1490 Avg QP:15.39 size: 79737
x264 [info]: frame P:40484 Avg QP:17.15 size: 38454
x264 [info]: frame B:143982 Avg QP:19.47 size: 17010
x264 [info]: consecutive B-frames: 3.2% 2.6% 6.2% 18.1% 18.1% 33.2% 8.0% 4.9% 1.6% 1.7% 1.0% 0.5% 0.3% 0.3% 0.3%
x264 [info]: mb I I16..4: 3.8% 85.6% 10.6%
x264 [info]: mb P I16..4: 0.9% 23.9% 2.0% P16..4: 24.9% 32.3% 12.9% 0.0% 0.0% skip: 3.0%
x264 [info]: mb B I16..4: 0.2% 4.1% 0.4% B16..8: 33.5% 24.7% 5.1% direct: 8.3% skip:23.7% L0:45.6% L1:40.4% BI:14.0%
x264 [info]: 8x8 transform intra:88.4% inter:60.4%
x264 [info]: coded y,uvDC,uvAC intra: 94.0% 90.1% 71.8% inter: 38.3% 36.2% 13.9%
x264 [info]: i16 v,h,dc,p: 58% 9% 5% 29%
x264 [info]: i8 v,h,dc,ddl,ddr,vr,hd,vl,hu: 10% 7% 7% 10% 14% 13% 13% 12% 14%
x264 [info]: i4 v,h,dc,ddl,ddr,vr,hd,vl,hu: 10% 7% 6% 9% 16% 14% 14% 11% 13%
x264 [info]: i8c dc,h,v,p: 42% 24% 17% 17%
x264 [info]: Weighted P-Frames: Y:12.0% UV:9.3%
x264 [info]: ref P L0: 39.2% 8.2% 17.5% 7.9% 6.7% 4.8% 4.5% 2.6% 2.5% 2.0% 2.0% 1.7% 0.3% 0.0%
x264 [info]: ref B L0: 68.2% 11.9% 6.2% 3.6% 2.7% 2.3% 1.8% 1.2% 1.1% 0.7% 0.3%
x264 [info]: ref B L1: 93.9% 6.1%
x264 [info]: kb/s:4254.56
Complete name : J:\The Matrix Trilogy\The.Matrix.Revolutions.(2003)_HDDVDRip_x264_cw.mkv
Format : Matroska
Format version : Version 2
File size : 4.54 GiB
Duration : 2 h 9 min
Overall bit rate : 5 025 kb/s
Movie name : Матрица: Революция / The Matrix Revolutions (2003)
Encoded date : UTC 2017-09-26 11:56:29
Writing application : mkvmerge v6.9.1 ('Blue Panther') 32bit built on Apr 18 2014 18:15:44
Writing library : libebml v1.3.0 + libmatroska v1.4.1
Cover : Yes
Attachments : cover.jpg
Video
ID : 1
Format : AVC
Format/Info : Advanced Video Codec
Format profile : High@L4.1
Format settings, CABAC : Yes
Format settings, ReFrames : 12 frames
Codec ID : V_MPEG4/ISO/AVC
Duration : 2 h 9 min
Bit rate : 4 157 kb/s
Width : 1 152 pixels
Height : 480 pixels
Display aspect ratio : 2.40:1
Frame rate mode : Constant
Frame rate : 23.976 (24000/1001) FPS
Color space : YUV
Chroma subsampling : 4:2:0
Bit depth : 8 bits
Scan type : Progressive
Bits/(Pixel*Frame) : 0.314
Stream size : 3.75 GiB (83%)
Title : The.Matrix.Revolutions.(2003)_HDDVDRip_x264_cw
Writing library : x264 core 152 r2851kMod ba24899
Encoding settings : cabac=1 / ref=12 / deblock=1:-3:-2 / analyse=0x3:0x113 / me=umh / subme=11 / psy=1 / fade_compensate=0.00 / psy_rd=1.00:0.00 / mixed_ref=1 / me_range=32 / chroma_me=1 / trellis=2 / 8x8dct=1 / cqm=0 / deadzone=21,11 / fast_pskip=1 / chroma_qp_offset=-2 / threads=4 / lookahead_threads=1 / sliced_threads=0 / nr=0 / decimate=1 / interlaced=0 / bluray_compat=0 / constrained_intra=0 / bframes=14 / b_pyramid=2 / b_adapt=2 / b_bias=0 / direct=1 / weightb=1 / open_gop=0 / weightp=2 / keyint=240 / keyint_min=23 / scenecut=40 / intra_refresh=0 / rc_lookahead=60 / rc=crf / mbtree=0 / crf=17.4000 / qcomp=0.60 / qpmin=0 / qpmax=69 / qpstep=4 / vbv_maxrate=50000 / vbv_bufsize=62500 / crf_max=0.0 / nal_hrd=none / filler=0 / ip_ratio=1.40 / pb_ratio=1.30 / aq=3:0.80
Language : English
Default : Yes
Forced : No
Color range : Limited
Color primaries : BT.709
Transfer characteristics : BT.709
Matrix coefficients : BT.709
Audio #1
ID : 2
Format : AC-3
Format/Info : Audio Coding 3
Format settings, Endianness : Big
Codec ID : A_AC3
Duration : 2 h 9 min
Bit rate mode : Constant
Bit rate : 384 kb/s
Channel(s) : 6 channels
Channel positions : Front: L C R, Side: L R, LFE
Sampling rate : 48.0 kHz
Frame rate : 31.250 FPS (1536 spf)
Bit depth : 16 bits
Compression mode : Lossy
Stream size : 355 MiB (8%)
Title : Dub
Language : Russian
Service kind : Complete Main
Default : Yes
Forced : No
Audio #2
ID : 3
Format : AC-3
Format/Info : Audio Coding 3
Format settings, Endianness : Big
Codec ID : A_AC3
Duration : 2 h 9 min
Bit rate mode : Constant
Bit rate : 384 kb/s
Channel(s) : 6 channels
Channel positions : Front: L C R, Side: L R, LFE
Sampling rate : 48.0 kHz
Frame rate : 31.250 FPS (1536 spf)
Bit depth : 16 bits
Compression mode : Lossy
Stream size : 355 MiB (8%)
Title : Original
Language : English
Service kind : Complete Main
Default : No
Forced : No
Text #1
ID : 4
Format : UTF-8
Codec ID : S_TEXT/UTF8
Codec ID/Info : UTF-8 Plain Text
Title : HDDVD
Language : Russian
Default : No
Forced : No
Text #2
ID : 5
Format : UTF-8
Codec ID : S_TEXT/UTF8
Codec ID/Info : UTF-8 Plain Text
Language : Ukrainian
Default : No
Forced : No
Text #3
ID : 6
Format : UTF-8
Codec ID : S_TEXT/UTF8
Codec ID/Info : UTF-8 Plain Text
Language : English
Default : No
Forced : No
Menu
00:00:00.000 : en:20 Hours to Go
00:03:55.401 : en:Trapped
00:07:33.119 : en:The Connection Matters
00:10:19.952 : en:Down Here I'm God
00:14:44.383 : en:Coat-Check Chaos
00:17:58.744 : en:Interesting Deal
00:23:33.245 : en:The End Is Coming
00:30:06.304 : en:We Meet at Last
00:35:35.633 : en:The Logos Found
00:39:34.205 : en:Volunteers
00:42:58.909 : en:I Believe in Him
00:46:43.300 : en:Nothing's Changed
00:49:02.606 : en:Stowaway
00:51:53.610 : en:See Your Enemy
00:58:00.643 : en:Give 'em Hell
01:00:19.115 : en:Detected
01:02:29.746 : en:Breaching the Dome
01:08:00.910 : en:Storming Sentinels
01:10:29.225 : en:Trying to Keep Up
01:14:33.802 : en:Unfinished Business
01:18:23.365 : en:Hell of a Pilot
01:23:08.984 : en:Report to the Council
01:25:55.817 : en:Believers
01:29:13.348 : en:Glimpse of the Sky
01:31:51.672 : en:Saying What Matters
01:36:51.472 : en:A Truce
01:41:55.275 : en:It Ends Tonight
01:44:53.120 : en:Urban Splash
01:48:06.646 : en:Neo's Choice
01:51:30.850 : en:Inevitable and Over
01:55:05.899 : en:Real Peace
01:57:31.210 : en:Freedom and Sunlight
02:00:12.371 : en:End Credits

Скриншоты

Сравнение с исходником

[font=serif1] старый || новый рип || исходник
- - -



_________________
Мои раздачи
[Торрент-статистика]
[Профиль]  [ЛС] 

desa

Пол:

Стаж: 9 лет

Сообщений: 321

Репутация: 192 [+] [-]

Откуда: Урал

Пост 28-Янв-2020 18:48 (спустя 51 минута)

[Цитировать] 

Отличный кин, только в декабре прошлого года пересмотрел ab

_________________
Не проверена раздача - напиши Модератору !
[Торрент-статистика]
[Профиль]  [ЛС] 

Волк ®

Пол:

Стаж: 8 лет 11 месяцев

Сообщений: 809

Репутация: 316 [+] [-]

Откуда: Армения

Пост 28-Янв-2020 21:20 (спустя 2 часа 32 минуты)

[Цитировать] 

desa, Согласен

_________________
Мои раздачи
[Торрент-статистика]
[Профиль]  [ЛС] 
Показать сообщения:    
Ответить на тему

Текущее время: Сегодня 22:46

Часовой пояс: GMT + 4



Вы не можете начинать темы
Вы не можете отвечать на сообщения
Вы не можете редактировать свои сообщения
Вы не можете удалять свои сообщения
Вы не можете голосовать в опросах
Вы не можете прикреплять файлы к сообщениям
Вы не можете скачивать файлы