Анжелика: Коллекция / Angelique Collection (Анжелика, маркиза ангелов; Великолепная Анжелика; Анжелика и король; Неукротимая Анжелика; Анжелика и Султан) (Бернар Бордери / Bernard Borderie) [1964-1968, приключения, DVDRip-AVC] DUB + MVO + Fre + Sub

Ответить на тему
 
Автор
Сообщение

awk05 ®

Пол:

Стаж: 8 лет 4 месяца

Сообщений: 1334

Репутация: 275 [+] [-]

Откуда: Западная Украина Ривне

Пост 14-Янв-2014 22:13

[Цитировать] 

--Анжелика: Коллекция / Angelique Collection-
Год выпуска: 1964-1968
Страна: Франция, Италия, Германия (ФРГ)
Жанр: мелодрама, приключения, история
Общая продолжительность: ~ 8 ч. 29 мин.
Перевод : Профессиональный (дублированный) + Закадровый НТВ + Французский
Русские субтитры: есть--Режиссер: Бернар Бордери / Bernard Borderie--В ролях: Мишель Мерсье, Робер Оссейн, Джулиано Джемма, Жан Рошфор, Клод Жиро, Жак Тожа, Бернар Воренже, Роберт Хоффман, Анри Коган, Жак Мигно, Жермон Витал, Бернар Ла Жарриж, Пьер Хатет, Этчика Шуро, Шарль Ренье, Жак Кастело, Мадлен Лебо, Жан Озенн, Робер Порте, Женевьев Фонтанель, Роберто, Филип Лемер, Франсуа Местр, Жан-Луи Трентиньян, Ноэль Роквер, Роберто, Клэр Морье, Сами Фрей, Эстелла Блэин, Мишель Галабрю, Фрэд Уильямс, Рене Лефевр, Паскуаль Мартино, Филип Лем--Описание: Если говорить о фильмах о любви, лучших, любимых, безумных, которыми хочется поделиться, то первое, что, без сомнений, многим придет на ум, это серия фильмов о приключениях прекрасной Анжелики - героини романов Анн и Сержа Голон. Эта чувственная история любви, полная страсти, непреодолимых препятствий и роковых потерь. Это потрясающе красивое произведение, пронизанное атмосферой эпохи старой Франции - эпохи старых замков и сияющих дворцов, галантных кавалеров и дам в шикарных платьях, придворных интриг и блеском Версаля. Это век безрассудных женщин и властных мужчин... Фильм богат безумно красивыми костюмами, в основном память запечатлела знаменитые наряды Анжелики. Ни в каком другом историческом костюмированном фильме я не встречала такого разнообразия прекрасных изысканных туалетов и в таком количестве.--Детям рекомендуется просмотр совместно с родителями.

Анжелика, маркиза ангелов

--Анжелика, маркиза ангелов / Angеlique - marquise des anges-- Страна: Франция, ФРГ, Италия
Жанр: Приключения, Мелодрама
Год выпуска: 1964
Продолжительность: 01:56:36
Перевод: Профессиональный (дублированный)
Перевод (2): Профессиональный (многоголосый закадровый) Доп.инфо о переводе НТВ
Cубтитры: русские, русские для пропусков в дубляже, английские
Оригинальная аудиодорожка: французский--Режиссер: Бернар Бордери / Bernard Borderie--В ролях: Мишель Мерсье, Робер Оссейн, Жан Рошфор, Джулиано Джемма, Ноэль Роквер--Описание: Действие происходит в XVII веке. Красавицу Анжелику без её согласия выдают замуж за знатного человека. Его богатство - это секрет добычи золота из породы, которым он владеет один во всей Франции и чуть ли не единственный во всем мире. Но, несмотря на это, Анжелика ненавидит его за хромую ногу и шрам на лице, но вскоре осознает, что её муж, граф Жоффрей де Пейрак, самый обаятельный, добрый и справедливый мужчина. Между Анжеликой и Жоффреем вспыхивают настоящие чувства, великолепная по силе любовь. Но вот король Людовик XIV приезжает в замок к графу, и его начинает терзать зависть к красавице-жене графа и его богатству. И тогда король и церковь идут на все, чтобы устранить неугодного им графа де Пейрака, даже на жестокую несправедливость. Как много ещё испытаний выпадет на долю Анжелики и Жоффрея? Но их любовь преодолевает всё...--Качество видео: DVDRip-AVC
Формат видео: MKV
Видео кодек: AVC
Аудио кодек: AC-3
Видео: 716x364 @ 849x364 (2.35:1), 23.976 fps, 1382 kbps, 0.221 Bits/(Pixel*Frame)
Аудио: AC3, 48000 Hz, 448 kbps, 6ch (Дубляж)
Аудио 2: AC3, 48000 Hz, 192 kbps, 2ch (Многоголосый закадровый НТВ)
Аудио 3: AC3, 48000 Hz, 192 kbps, 2ch (Французский)
Формат субтитров: softsub (SRT)
Доп. информация о субтитрах: Русские, русские для пропусков в дубляже, английские-- --

MI

General
Unique ID : 196369765765967444592443230458212274790 (0x93BB70F2E20383BAA3D2D0A9C3205266)
Complete name : E:\Films\Анжелика. Коллекция\1. Анжелика, маркиза ангелов.mkv
Format : Matroska
Format version : Version 2
File size : 1.84 GiB
Duration : 1h 56mn
Overall bit rate : 2 259 Kbps
Encoded date : UTC 2010-10-05 04:00:02
Writing application : mkvmerge v3.3.0 ('Language') built on Mar 24 2010 14:59:24
Writing library : libebml v0.8.0 + libmatroska v0.9.0
Video
ID : 1
Format : AVC
Format/Info : Advanced Video Codec
Format profile : High@L3.1
Format settings, CABAC : Yes
Format settings, ReFrames : 16 frames
Codec ID : V_MPEG4/ISO/AVC
Duration : 1h 56mn
Bit rate : 1 382 Kbps
Width : 716 pixels
Height : 364 pixels
Display aspect ratio : 2.35:1
Original display aspect ratio : 2.35:1
Frame rate mode : Constant
Frame rate : 23.976 fps
Color space : YUV
Chroma subsampling : 4:2:0
Bit depth : 8 bits
Scan type : Progressive
Bits/(Pixel*Frame) : 0.221
Stream size : 1.13 GiB (61%)
Writing library : x264 core 100 r1659 57b2e56
Encoding settings : cabac=1 / ref=16 / deblock=1:-1:-1 / analyse=0x3:0x113 / me=umh / subme=10 / psy=1 / psy_rd=1.00:0.00 / mixed_ref=1 / me_range=24 / chroma_me=1 / trellis=2 / 8x8dct=1 / cqm=0 / deadzone=21,11 / fast_pskip=0 / chroma_qp_offset=-2 / threads=3 / sliced_threads=0 / nr=0 / decimate=1 / interlaced=0 / constrained_intra=0 / bframes=8 / b_pyramid=2 / b_adapt=2 / b_bias=0 / direct=1 / weightb=1 / open_gop=0 / weightp=2 / keyint=250 / keyint_min=25 / scenecut=40 / intra_refresh=0 / rc=crf / mbtree=0 / crf=17.5 / qcomp=0.60 / qpmin=10 / qpmax=51 / qpstep=4 / ip_ratio=1.40 / pb_ratio=1.30 / aq=2:1.00
Language : French
Default : Yes
Forced : No
Audio #1
ID : 2
Format : AC-3
Format/Info : Audio Coding 3
Mode extension : CM (complete main)
Format settings, Endianness : Big
Codec ID : A_AC3
Duration : 1h 56mn
Bit rate mode : Constant
Bit rate : 448 Kbps
Channel count : 6 channels
Channel positions : Front: L C R, Side: L R, LFE
Sampling rate : 48.0 KHz
Bit depth : 16 bits
Compression mode : Lossy
Stream size : 374 MiB (20%)
Title : Дубляж
Language : Russian
Default : Yes
Forced : No
Audio #2
ID : 3
Format : AC-3
Format/Info : Audio Coding 3
Mode extension : CM (complete main)
Format settings, Endianness : Big
Codec ID : A_AC3
Duration : 1h 56mn
Bit rate mode : Constant
Bit rate : 192 Kbps
Channel count : 2 channels
Channel positions : Front: L R
Sampling rate : 48.0 KHz
Bit depth : 16 bits
Compression mode : Lossy
Stream size : 160 MiB (9%)
Title : НТВ
Language : Russian
Default : No
Forced : No
Audio #3
ID : 4
Format : AC-3
Format/Info : Audio Coding 3
Mode extension : CM (complete main)
Format settings, Endianness : Big
Codec ID : A_AC3
Duration : 1h 56mn
Bit rate mode : Constant
Bit rate : 192 Kbps
Channel count : 2 channels
Channel positions : Front: L R
Sampling rate : 48.0 KHz
Bit depth : 16 bits
Compression mode : Lossy
Stream size : 160 MiB (9%)
Title : Original
Language : French
Default : No
Forced : No
Text #1
ID : 5
Format : UTF-8
Codec ID : S_TEXT/UTF8
Codec ID/Info : UTF-8 Plain Text
Language : Russian
Default : No
Forced : No
Text #2
ID : 6
Format : UTF-8
Codec ID : S_TEXT/UTF8
Codec ID/Info : UTF-8 Plain Text
Title : Для пропусков в дубляже
Language : Russian
Default : No
Forced : No
Text #3
ID : 7
Format : UTF-8
Codec ID : S_TEXT/UTF8
Codec ID/Info : UTF-8 Plain Text
Language : English
Default : No
Forced : No

Великолепная Анжелика

--Великолепная Анжелика / Merveilleuse Angelique-- Страна: Франция, ФРГ, Италия
Жанр: Приключения, Мелодрама
Год выпуска: 1965
Продолжительность: 01:44:43
Перевод: Профессиональный (многоголосый закадровый)
Перевод (2): Профессиональный (многоголосый закадровый) Доп.инфо о переводе НТВ
Cубтитры: русские, английские
Оригинальная аудиодорожка: французский--Режиссер: Бернар Бордери / Bernard Borderie--В ролях: Мишель Мерсье, Жан-Луи Трентиньян, Клод Жиро, Жан Рошфор, Джулиано Джемма, Жак Тожа, Клэр Морье, Роберт Хоффман, Анри Коган, Ноэль Роквер, Шарль Ренье, Роберто, Робер Порте
Описание: После того, как де Пейрака сжигают на костре за колдовство, Анжелику приследует полиция и её враг, брат короля... Ей удаётся найти убежище у разбойников в Кур де Миракл, обитателей Двора Чудес, где предводительствует друг ее детства Николя. Став орудием её мести, Николя вскоре погибает. А затем и сама Анжелика попадает в заточение в подземелье Шале...--Качество видео: DVDRip-AVC
Формат видео: MKV
Видео кодек: AVC
Аудио кодек: AC3
Видео: 720x370 @ 853x370 (2.31:1), 23.976 fps, 1670 kbps, 0.259 Bits/(Pixel*Frame)
Аудио: AC3, 48000 Hz, 448 kbps, 6ch (Многолосый закадровый #1)
Аудио 2: AC3, 48000 Hz, 192 kbps, 2ch (Многоголосый закадровый НТВ)
Аудио 3: AC3, 48000 Hz, 192 kbps, 2ch (Французский)
Формат субтитров: softsub (SRT)-- --

MI

General
Unique ID : 254982500369644634144032074030714856239 (0xBFD3D7E0E9F141068B31299523C6232F)
Complete name : E:\Films\Анжелика. Коллекция\2. Великолепная Анжелика.mkv
Format : Matroska
Format version : Version 2
File size : 1.86 GiB
Duration : 1h 44mn
Overall bit rate : 2 536 Kbps
Encoded date : UTC 2010-10-09 05:17:57
Writing application : mkvmerge v3.3.0 ('Language') built on Mar 24 2010 14:59:24
Writing library : libebml v0.8.0 + libmatroska v0.9.0
Video
ID : 1
Format : AVC
Format/Info : Advanced Video Codec
Format profile : High@L3.1
Format settings, CABAC : Yes
Format settings, ReFrames : 16 frames
Codec ID : V_MPEG4/ISO/AVC
Duration : 1h 44mn
Bit rate : 1 653 Kbps
Width : 720 pixels
Height : 370 pixels
Display aspect ratio : 2.35:1
Original display aspect ratio : 2.35:1
Frame rate mode : Constant
Frame rate : 23.976 fps
Color space : YUV
Chroma subsampling : 4:2:0
Bit depth : 8 bits
Scan type : Progressive
Bits/(Pixel*Frame) : 0.259
Stream size : 1.21 GiB (65%)
Writing library : x264 core 100 r1659 57b2e56
Encoding settings : cabac=1 / ref=16 / deblock=1:-1:-1 / analyse=0x3:0x113 / me=umh / subme=10 / psy=1 / psy_rd=1.00:0.00 / mixed_ref=1 / me_range=24 / chroma_me=1 / trellis=2 / 8x8dct=1 / cqm=0 / deadzone=21,11 / fast_pskip=0 / chroma_qp_offset=-2 / threads=3 / sliced_threads=0 / nr=0 / decimate=1 / interlaced=0 / constrained_intra=0 / bframes=8 / b_pyramid=2 / b_adapt=2 / b_bias=0 / direct=1 / weightb=1 / open_gop=0 / weightp=2 / keyint=250 / keyint_min=25 / scenecut=40 / intra_refresh=0 / rc=crf / mbtree=0 / crf=17.5 / qcomp=0.60 / qpmin=10 / qpmax=51 / qpstep=4 / ip_ratio=1.40 / pb_ratio=1.30 / aq=2:1.00
Language : French
Default : Yes
Forced : No
Audio #1
ID : 2
Format : AC-3
Format/Info : Audio Coding 3
Mode extension : CM (complete main)
Format settings, Endianness : Big
Codec ID : A_AC3
Duration : 1h 44mn
Bit rate mode : Constant
Bit rate : 448 Kbps
Channel count : 6 channels
Channel positions : Front: L C R, Side: L R, LFE
Sampling rate : 48.0 KHz
Bit depth : 16 bits
Compression mode : Lossy
Stream size : 336 MiB (18%)
Title : Закадровый #1
Language : Russian
Default : Yes
Forced : No
Audio #2
ID : 3
Format : AC-3
Format/Info : Audio Coding 3
Mode extension : CM (complete main)
Format settings, Endianness : Big
Codec ID : A_AC3
Duration : 1h 44mn
Bit rate mode : Constant
Bit rate : 192 Kbps
Channel count : 2 channels
Channel positions : Front: L R
Sampling rate : 48.0 KHz
Bit depth : 16 bits
Compression mode : Lossy
Stream size : 144 MiB (8%)
Title : Закадровый НТВ
Language : Russian
Default : No
Forced : No
Audio #3
ID : 4
Format : AC-3
Format/Info : Audio Coding 3
Mode extension : CM (complete main)
Format settings, Endianness : Big
Codec ID : A_AC3
Duration : 1h 44mn
Bit rate mode : Constant
Bit rate : 192 Kbps
Channel count : 2 channels
Channel positions : Front: L R
Sampling rate : 48.0 KHz
Bit depth : 16 bits
Compression mode : Lossy
Stream size : 144 MiB (8%)
Title : Original
Language : French
Default : No
Forced : No
Text #1
ID : 5
Format : UTF-8
Codec ID : S_TEXT/UTF8
Codec ID/Info : UTF-8 Plain Text
Language : Russian
Default : No
Forced : No
Text #2
ID : 6
Format : UTF-8
Codec ID : S_TEXT/UTF8
Codec ID/Info : UTF-8 Plain Text
Language : English
Default : No
Forced : No

Анжелика и король

--Анжелика и король / Angelique et le roy--
Страна: Франция, ФРГ, Италия
Жанр: Приключения, Мелодрама
Год выпуска: 1966
Продолжительность: 01:44:28
Перевод: Профессиональный (дублированный)
Перевод (2): Профессиональный (многоголосый закадровый) Доп.инфо о переводе2 НТВ
Cубтитры: русские, русские для пропусков в дубляже, английские
Оригинальная аудиодорожка: французский--Режиссер: Бернар Бордери / Bernard Borderie--В ролях: Мишель Мерсье, Сами Фрей, Робер Оссейн, Клод Жиро, Жан Рошфор, Эстелла Блэин, Жак Тожа, Мишель Галабрю, Фрэд Уильямс, Рене Лефевр, Паскуаль Мартино, Жан Лефевр, Роберто, Филип Лемер--Описание: Король Людовик XIV даёт Анжелике задание: уговорить персидского посла подписать договор с Францией. Решив, что цель оправдывает средства, она использует всё своё очарование. Посол соглашается на сделку, но требует прекрасную Анжелику...--Качество видео: DVDRip-AVC
Формат видео: MKV
Видео кодек: AVC
Аудио кодек: AC3
Видео: 718x370 @ 851 x 370 (2.35:1), 23.796 fps, 1626 kbps, 0.255 Bits/(Pixel*Frame)
Аудио: AC3, 48000 Hz, 448 kbps, 6ch. Дубляж
Аудио 2: AC3, 48000 Hz, 192 kbps, 2ch. Закадровый НТВ
Аудио 3: AC3, 48000 Hz, 192 kbps, 2ch. Французский
Формат субтитров: softsub (SRT)
Доп. информация о субтитрах: Русские, русские для пропусков в дубляже, английские-- --

MI

General
Unique ID : 229408317689553868886228800006651613127 (0xAC966F528664BE69B2312E9F6CAB8FC7)
Complete name : E:\Films\Анжелика. Коллекция\3. Анжелика и король.mkv
Format : Matroska
Format version : Version 2
File size : 1.83 GiB
Duration : 1h 44mn
Overall bit rate : 2 508 Kbps
Encoded date : UTC 2010-10-05 19:11:53
Writing application : mkvmerge v3.3.0 ('Language') built on Mar 24 2010 14:59:24
Writing library : libebml v0.8.0 + libmatroska v0.9.0
Video
ID : 1
Format : AVC
Format/Info : Advanced Video Codec
Format profile : High@L3.1
Format settings, CABAC : Yes
Format settings, ReFrames : 8 frames
Codec ID : V_MPEG4/ISO/AVC
Duration : 1h 44mn
Bit rate : 1 626 Kbps
Width : 718 pixels
Height : 370 pixels
Display aspect ratio : 2.35:1
Frame rate mode : Constant
Frame rate : 23.976 fps
Color space : YUV
Chroma subsampling : 4:2:0
Bit depth : 8 bits
Scan type : Progressive
Bits/(Pixel*Frame) : 0.255
Stream size : 1.19 GiB (65%)
Writing library : x264 core 104 r1698 c41b8f0
Encoding settings : cabac=1 / ref=8 / deblock=1:-1:-1 / analyse=0x3:0x113 / me=umh / subme=10 / psy=1 / psy_rd=1.00:0.00 / mixed_ref=1 / me_range=24 / chroma_me=1 / trellis=2 / 8x8dct=1 / cqm=0 / deadzone=21,11 / fast_pskip=0 / chroma_qp_offset=-2 / threads=3 / sliced_threads=0 / nr=0 / decimate=1 / interlaced=0 / constrained_intra=0 / bframes=6 / b_pyramid=2 / b_adapt=2 / b_bias=0 / direct=1 / weightb=1 / open_gop=0 / weightp=2 / keyint=250 / keyint_min=23 / scenecut=40 / intra_refresh=0 / rc=crf / mbtree=0 / crf=16.5 / qcomp=0.60 / qpmin=10 / qpmax=51 / qpstep=4 / ip_ratio=1.40 / pb_ratio=1.30 / aq=2:1.00
Language : French
Default : Yes
Forced : No
Audio #1
ID : 2
Format : AC-3
Format/Info : Audio Coding 3
Mode extension : CM (complete main)
Format settings, Endianness : Big
Codec ID : A_AC3
Duration : 1h 44mn
Bit rate mode : Constant
Bit rate : 448 Kbps
Channel count : 6 channels
Channel positions : Front: L C R, Side: L R, LFE
Sampling rate : 48.0 KHz
Bit depth : 16 bits
Compression mode : Lossy
Stream size : 335 MiB (18%)
Title : Дубляж
Language : Russian
Default : Yes
Forced : No
Audio #2
ID : 3
Format : AC-3
Format/Info : Audio Coding 3
Mode extension : CM (complete main)
Format settings, Endianness : Big
Codec ID : A_AC3
Duration : 1h 44mn
Bit rate mode : Constant
Bit rate : 192 Kbps
Channel count : 2 channels
Channel positions : Front: L R
Sampling rate : 48.0 KHz
Bit depth : 16 bits
Compression mode : Lossy
Stream size : 143 MiB (8%)
Title : НТВ
Language : Russian
Default : No
Forced : No
Audio #3
ID : 4
Format : AC-3
Format/Info : Audio Coding 3
Mode extension : CM (complete main)
Format settings, Endianness : Big
Codec ID : A_AC3
Duration : 1h 44mn
Bit rate mode : Constant
Bit rate : 192 Kbps
Channel count : 2 channels
Channel positions : Front: L R
Sampling rate : 48.0 KHz
Bit depth : 16 bits
Compression mode : Lossy
Stream size : 143 MiB (8%)
Title : Original
Language : French
Default : No
Forced : No
Text #1
ID : 5
Format : UTF-8
Codec ID : S_TEXT/UTF8
Codec ID/Info : UTF-8 Plain Text
Language : Russian
Default : No
Forced : No
Text #2
ID : 6
Format : UTF-8
Codec ID : S_TEXT/UTF8
Codec ID/Info : UTF-8 Plain Text
Title : Для пропусков в дубляже
Language : Russian
Default : No
Forced : No
Text #3
ID : 7
Format : UTF-8
Codec ID : S_TEXT/UTF8
Codec ID/Info : UTF-8 Plain Text
Language : English
Default : No
Forced : No

Неукротимая Анжелика

--Неукротимая Анжелика / Indomptable Angelique-- Страна: Франция, ФРГ, Италия
Жанр: Приключения, Мелодрама
Год выпуска: 1967
Продолжительность: 1:25:32
Перевод: Профессиональный (дублированный)
Перевод (2): Профессиональный (многоголосый закадровый) Доп.инфо о переводе2 НТВ
Cубтитры: русские, русские для пропусков в дубляже, английские
Оригинальная аудиодорожка: французский--Режиссер: Бернар Бордери / Bernard Borderie--В ролях: Мишель Мерсье, Робер Оссейн, Жан Рошфор, Этторе Манни, Бруно Дитрих, Кристиан Роде, Роже Пика, Паскуаль Мартино--Описание: Поиски мужа приводят Анжелику к морскому побережью, где следы Жоффре де Пейрака обрываются... Капитан королевской галеры, пораженный красотой молодой женщины, принуждает её подняться на борт и сопровождать его в плавании. Это отвечает тайным интересам Анжелики, так как на острове Крит, куда корабль держит курс, она надеется получить сведения о своём пропавшем супруге. Попытавшись соблазнить Анжелику, капитан получает отказ. Чувствуя себя униженным, он бросает красавицу в трюм, а позже продаёт на невольничьем рынке. На аукционе идут ожесточенные торги за право обладать прелестной француженкой...--Качество видео: DVDRip-AVC
Формат видео: MKV
Видео кодек: AVC
Аудио кодек: AC3
Видео: 720x370 @ 853x370 (2.35:1), 23.976 fps, 1582 kbps, 0.248 Bits/(Pixel*Frame)
Аудио: AC3, 48000 Hz, 448 kbps, 6ch. Дубляж
Аудио 2: AC3, 48000 Hz, 192 kbps, 2ch. Закадровый НТВ
Аудио 3: AC3, 48000 Hz, 192 kbps, 2ch. Французский
Формат субтитров: softsub (SRT)
Доп. информация о субтитрах: Русские, русские для пропусков в дубляже, английские-- --

MI

General
Unique ID : 190438671030523732044729392292921261178 (0x8F452766B10D25949CC4B5AB3B2ABC7A)
Complete name : E:\Films\Анжелика. Коллекция\4. Неукротимая Анжелика.mkv
Format : Matroska
Format version : Version 2
File size : 1.47 GiB
Duration : 1h 25mn
Overall bit rate : 2 463 Kbps
Encoded date : UTC 2010-10-05 19:08:42
Writing application : mkvmerge v3.3.0 ('Language') built on Mar 24 2010 14:59:24
Writing library : libebml v0.8.0 + libmatroska v0.9.0
Video
ID : 1
Format : AVC
Format/Info : Advanced Video Codec
Format profile : High@L3.1
Format settings, CABAC : Yes
Format settings, ReFrames : 8 frames
Codec ID : V_MPEG4/ISO/AVC
Duration : 1h 25mn
Bit rate : 1 582 Kbps
Width : 720 pixels
Height : 370 pixels
Display aspect ratio : 2.35:1
Original display aspect ratio : 2.35:1
Frame rate mode : Constant
Frame rate : 23.976 fps
Color space : YUV
Chroma subsampling : 4:2:0
Bit depth : 8 bits
Scan type : Progressive
Bits/(Pixel*Frame) : 0.248
Stream size : 968 MiB (64%)
Writing library : x264 core 104 r1698 c41b8f0
Encoding settings : cabac=1 / ref=8 / deblock=1:-1:-1 / analyse=0x3:0x113 / me=umh / subme=10 / psy=1 / psy_rd=1.00:0.00 / mixed_ref=1 / me_range=24 / chroma_me=1 / trellis=2 / 8x8dct=1 / cqm=0 / deadzone=21,11 / fast_pskip=0 / chroma_qp_offset=-2 / threads=3 / sliced_threads=0 / nr=0 / decimate=1 / interlaced=0 / constrained_intra=0 / bframes=6 / b_pyramid=2 / b_adapt=2 / b_bias=0 / direct=1 / weightb=1 / open_gop=0 / weightp=2 / keyint=250 / keyint_min=23 / scenecut=40 / intra_refresh=0 / rc=crf / mbtree=0 / crf=17.5 / qcomp=0.60 / qpmin=10 / qpmax=51 / qpstep=4 / ip_ratio=1.40 / pb_ratio=1.30 / aq=2:1.00
Language : French
Default : Yes
Forced : No
Audio #1
ID : 2
Format : AC-3
Format/Info : Audio Coding 3
Mode extension : CM (complete main)
Format settings, Endianness : Big
Codec ID : A_AC3
Duration : 1h 25mn
Bit rate mode : Constant
Bit rate : 448 Kbps
Channel count : 6 channels
Channel positions : Front: L C R, Side: L R, LFE
Sampling rate : 48.0 KHz
Bit depth : 16 bits
Compression mode : Lossy
Stream size : 274 MiB (18%)
Title : Дубляж
Language : Russian
Default : Yes
Forced : No
Audio #2
ID : 3
Format : AC-3
Format/Info : Audio Coding 3
Mode extension : CM (complete main)
Format settings, Endianness : Big
Codec ID : A_AC3
Duration : 1h 25mn
Bit rate mode : Constant
Bit rate : 192 Kbps
Channel count : 2 channels
Channel positions : Front: L R
Sampling rate : 48.0 KHz
Bit depth : 16 bits
Compression mode : Lossy
Stream size : 117 MiB (8%)
Title : НТВ
Language : Russian
Default : No
Forced : No
Audio #3
ID : 4
Format : AC-3
Format/Info : Audio Coding 3
Mode extension : CM (complete main)
Format settings, Endianness : Big
Codec ID : A_AC3
Duration : 1h 25mn
Bit rate mode : Constant
Bit rate : 192 Kbps
Channel count : 2 channels
Channel positions : Front: L R
Sampling rate : 48.0 KHz
Bit depth : 16 bits
Compression mode : Lossy
Stream size : 117 MiB (8%)
Title : Original
Language : French
Default : No
Forced : No
Text #1
ID : 5
Format : UTF-8
Codec ID : S_TEXT/UTF8
Codec ID/Info : UTF-8 Plain Text
Language : Russian
Default : No
Forced : No
Text #2
ID : 6
Format : UTF-8
Codec ID : S_TEXT/UTF8
Codec ID/Info : UTF-8 Plain Text
Title : Для пропусков в дубляже
Language : Russian
Default : No
Forced : No
Text #3
ID : 7
Format : UTF-8
Codec ID : S_TEXT/UTF8
Codec ID/Info : UTF-8 Plain Text
Language : English
Default : No
Forced : No

Анжелика и Султан

--Анжелика и Султан / Angelique et le Sultan--
Страна: Франция, ФРГ, Италия
Жанр: Приключения, Мелодрама
Год выпуска: 1968
Продолжительность: 1:37:26
Перевод: Профессиональный (дублированный)
Перевод (2): Профессиональный (многоголосый закадровый) Доп.инфо о переводе2 НТВ
Cубтитры: русские, русские для пропусков в дубляже, английские
Оригинальная аудиодорожка: французский--Режиссер: Бернар Бордери / Bernard Borderie--В ролях: Мишель Мерсье, Жан-Клод Паскаль, Робер Оссейн, Жан Рошфор, Хельмут Шнайдер, Али Бен Айед, Анри Коган, Роже Пика, Жак Санти, Эрно Криса, Сигхардт Рупп--Описание: Очередная серия приключений знаменитой французской красавицы. Отвергнутая Версалем и преследуемая королевскими слугами,Анжелика оказывается на Востоке. Захваченная в плен воинами арабского султана, она попадает к нему в гарем, но в очередной раз доказывает свою преданность и любовь к мужу. Единственное чувство,согревающее сердце Анжелики, - это надежда вновь обрести своего возлюбленного...--Качество видео: DVDRip-AVC
Формат видео: MKV
Видео кодек: AVC
Аудио кодек: AC3
Видео: x264, 720x364 @ 853x364 (2.35:1), 23.976 fps, 1429 kbps, 0.227Bits/(Pixel*Frame)
Аудио: AC3, 48000 Hz, 448 kbps, 6ch. Дубляж
Аудио 2: AC3, 48000 Hz, 192 kbps, 2ch. Закадровый НТВ
Аудио 3: AC3, 48000 Hz, 192 kbps, 2ch. Французский
Формат субтитров: softsub (SRT)
Доп. информация о субтитрах: Русские, русские для пропусков в дубляже, английские-- --

MI

General
Unique ID : 254066015898971844842752130518622907376 (0xBF2355B49B7ACC7FBEF2481C84A7ABF0)
Complete name : E:\Films\Анжелика. Коллекция\5. Анжелика и Султан.mkv
Format : Matroska
Format version : Version 2
File size : 1.57 GiB
Duration : 1h 37mn
Overall bit rate : 2 307 Kbps
Encoded date : UTC 2010-10-05 05:30:21
Writing application : mkvmerge v3.3.0 ('Language') built on Mar 24 2010 14:59:24
Writing library : libebml v0.8.0 + libmatroska v0.9.0
Video
ID : 1
Format : AVC
Format/Info : Advanced Video Codec
Format profile : High@L3.1
Format settings, CABAC : Yes
Format settings, ReFrames : 8 frames
Codec ID : V_MPEG4/ISO/AVC
Duration : 1h 37mn
Bit rate : 1 429 Kbps
Width : 720 pixels
Height : 364 pixels
Display aspect ratio : 2.35:1
Original display aspect ratio : 2.35:1
Frame rate mode : Constant
Frame rate : 23.976 fps
Color space : YUV
Chroma subsampling : 4:2:0
Bit depth : 8 bits
Scan type : Progressive
Bits/(Pixel*Frame) : 0.227
Stream size : 996 MiB (62%)
Writing library : x264 core 104 r1698 c41b8f0
Encoding settings : cabac=1 / ref=8 / deblock=1:-1:-1 / analyse=0x3:0x113 / me=umh / subme=10 / psy=1 / psy_rd=1.00:0.00 / mixed_ref=1 / me_range=24 / chroma_me=1 / trellis=2 / 8x8dct=1 / cqm=0 / deadzone=21,11 / fast_pskip=0 / chroma_qp_offset=-2 / threads=3 / sliced_threads=0 / nr=0 / decimate=1 / interlaced=0 / constrained_intra=0 / bframes=6 / b_pyramid=2 / b_adapt=2 / b_bias=0 / direct=1 / weightb=1 / open_gop=0 / weightp=2 / keyint=250 / keyint_min=23 / scenecut=40 / intra_refresh=0 / rc=crf / mbtree=0 / crf=17.5 / qcomp=0.60 / qpmin=10 / qpmax=51 / qpstep=4 / ip_ratio=1.40 / pb_ratio=1.30 / aq=2:1.00
Language : French
Default : Yes
Forced : No
Audio #1
ID : 2
Format : AC-3
Format/Info : Audio Coding 3
Mode extension : CM (complete main)
Format settings, Endianness : Big
Codec ID : A_AC3
Duration : 1h 37mn
Bit rate mode : Constant
Bit rate : 448 Kbps
Channel count : 6 channels
Channel positions : Front: L C R, Side: L R, LFE
Sampling rate : 48.0 KHz
Bit depth : 16 bits
Compression mode : Lossy
Stream size : 312 MiB (19%)
Title : Дубляж
Language : Russian
Default : Yes
Forced : No
Audio #2
ID : 3
Format : AC-3
Format/Info : Audio Coding 3
Mode extension : CM (complete main)
Format settings, Endianness : Big
Codec ID : A_AC3
Duration : 1h 37mn
Bit rate mode : Constant
Bit rate : 192 Kbps
Channel count : 2 channels
Channel positions : Front: L R
Sampling rate : 48.0 KHz
Bit depth : 16 bits
Compression mode : Lossy
Stream size : 134 MiB (8%)
Title : НТВ
Language : Russian
Default : No
Forced : No
Audio #3
ID : 4
Format : AC-3
Format/Info : Audio Coding 3
Mode extension : CM (complete main)
Format settings, Endianness : Big
Codec ID : A_AC3
Duration : 1h 37mn
Bit rate mode : Constant
Bit rate : 192 Kbps
Channel count : 2 channels
Channel positions : Front: L R
Sampling rate : 48.0 KHz
Bit depth : 16 bits
Compression mode : Lossy
Stream size : 134 MiB (8%)
Title : Original
Language : French
Default : No
Forced : No
Text #1
ID : 5
Format : UTF-8
Codec ID : S_TEXT/UTF8
Codec ID/Info : UTF-8 Plain Text
Language : Russian
Default : No
Forced : No
Text #2
ID : 6
Format : UTF-8
Codec ID : S_TEXT/UTF8
Codec ID/Info : UTF-8 Plain Text
Title : Для пропусков в дубляже
Language : Russian
Default : No
Forced : No
Text #3
ID : 7
Format : UTF-8
Codec ID : S_TEXT/UTF8
Codec ID/Info : UTF-8 Plain Text
Language : English
Default : No
Forced : No

_________________
[Торрент-статистика]
[Профиль]  [ЛС] 
Показать сообщения:    
Ответить на тему

Текущее время: Сегодня 13:22

Часовой пояс: GMT + 4



Вы не можете начинать темы
Вы не можете отвечать на сообщения
Вы не можете редактировать свои сообщения
Вы не можете удалять свои сообщения
Вы не можете голосовать в опросах
Вы не можете прикреплять файлы к сообщениям
Вы не можете скачивать файлы