Библейская коллекция / The Bible Collection [1993-2007 г., драма, история, DVDRip / SATRip]

Ответить на тему
 
Автор
Сообщение

3232fox ®

Пол:

Стаж: 7 лет 7 месяцев

Сообщений: 587

Репутация: 426 [+] [-]

Откуда: Крым,Россия

Пост 01-Янв-2014 17:18

[Цитировать] 

-Библейская коллекция / The Bible Collection--Год выпуска: 1993-2007
Страна: Франция - Италия - Германия - Великобритания - ЮАР - США
Жанр: Драма, история--Описание: Экранизация канонических глав Ветхого Завета, в которой оживают Библейские легенды из Книги Бытия об Аврааме, Прародителе трех великих мировых религий: иудаизма, христианства и ислама.
Услышав призыв Бога, Авраам отправился в странствие, чтобы обрести Землю обетованную. Вместе с женой и горсткой последователей он испытал на себе голод, жажду и могущество египетского фараона. После долгих скитаний Авраам и его люди достигают Ханаана - Земли обетованной. Здесь рождается его сын Исаак, и Бог подвергает Авраама еще одному, самому страшному испытанию…
--Фильмы--

Авраам (Abraham).

-Библейская коллекция: Авраам / The Bible - Abraham--Cтрана: Германия, США, Франция, Италия, Чехия
Продолжительность:~03:06-сд2
Жанр: драма, история
Перевод:двухголосый (профессиональный)
Год выпуска:1994--Режиссер:Джозеф Сарджент (Joseph Sargent)--Описание:
Экранизация канонических глав Ветхого Завета, в которой оживают Библейские легенды из Книги Бытия об Аврааме, Прародителе трех великих мировых религий: иудаизма, христианства и ислама.
Услышав призыв Бога, Авраам отправился в странствие, чтобы обрести Землю обетованную. Вместе с женой и горсткой последователей он испытал на себе голод, жажду и могущество египетского фараона. После долгих скитаний Авраам и его люди достигают Ханаана - Земли обетованной. Здесь рождается его сын Исаак, и Бог подвергает Авраама еще одному, самому страшному испытанию…--Тип релиза: DVDRip
Контейнер: avi
Видео кодек: DivX
Аудио кодек: AAC
Видео:704x528, битрейт: 899 кбит/с, фреймрейт: 25 FPS
Аудио:AAC,каналы:стерео, битрейт: 96 кбит/с--

Скриншоты

MI

General
UniqueID : 219880243358663442349915314821722561936 (0xA56B64FD0EE0057FB3C2DF8BD1005D90)
Complete name : G:\видео\Библейская коллекция\1. (1994) Авраам (Abraham)\Авраам CD1.avi
Format : Matroska
File size : 652 MiB
Duration : 39mn 46s
Overall bit rate : 2 293 Kbps
Encoded date : UTC 2010-01-10 14:57:09
Writing application : mkvmerge v2.9.8 ('C'est le bon') built on Aug 13 2009 12:49:06
Writing library : libebml v0.7.7 + libmatroska v0.8.1
Video
ID : 1
Format : AVC
Format/Info : Advanced Video Codec
Format profile : High@L3.0
Format settings, CABAC : Yes
Format settings, ReFrames : 3 frames
Codec ID : V_MPEG4/ISO/AVC
Duration : 39mn 46s
Nominal bit rate : 1 693 Kbps
Width : 704 pixels
Height : 528 pixels
Display aspect ratio : 4:3
Original display aspect ratio : 5:4
Frame rate : 25.000 fps
Standard : PAL
Color space : YUV
Chroma subsampling : 4:2:0
Bit depth : 8 bits
Scan type : Progressive
Bits/(Pixel*Frame) : 0.163
Writing library : x264 core 65 r999kMod cc51047
Encoding settings : cabac=1 / ref=3 / deblock=1:0:0 / analyse=0x3:0x133 / me=esa / subme=7 / psy_rd=1.0:0.0 / mixed_ref=1 / me_range=20 / chroma_me=1 / trellis=2 / 8x8dct=1 / cqm=0 / deadzone=21,11 / chroma_qp_offset=-2 / threads=2 / thread_queue=2 / nr=0 / decimate=1 / mbaff=0 / bframes=3 / b_pyramid=1 / b_adapt=1 / b_bias=0 / direct=3 / wpredb=1 / keyint=250 / keyint_min=25 / scenecut=40(pre) / rc=2pass / bitrate=1693 / ratetol=1.0 / qcomp=0.60 / qpmin=10 / qpmax=51 / qpstep=4 / cplxblur=20.0 / qblur=0.5 / ip_ratio=1.40 / pb_ratio=1.30 / aq=1:1.00
Audio
ID : 2
Format : AAC
Format/Info : Advanced Audio Codec
Format version : Version 4
Format profile : LC
Format settings, SBR : No
Codec ID : A_AAC
Duration : 39mn 46s
Channel(s) : 6 channels
Channel positions : Front: L C R, Side: L R, LFE
Sampling rate : 48.0 KHz
Compression mode : Lossy
Language : Russian

Иаков (Jacob).

-Библейская коллекция: Иаков. / The Bible - Jacob--Cтрана: США / Италия
Продолжительность:~01:29:08
Жанр: драма, история
Перевод: многоголосый закадровый (профессиональный)
Год выпуска:1994--Режиссер:Питер Холл--Описание:Питер Холл представляет на экране одну из самых трогательных историй человеческой жизни: для того, чтобы быть вместе, Иаков и Рахиль готовы пойти на любые испытания. Хитростью завладев первородным правом своего брата и обманов получив благословение своего отца, Исаака, Иаков вынужден покинуть родной дом, опасаясь за свою жизнь. Но встретившись с красавицей Рахилью, он забывает о своем мрачном прошлом и мечтает только о будущем вместе с ней. Не имея никаких средств к существованию, Иаков предлагает отцу Рахили за руку его дочери работать на него семь лет. Лаван – отец Рахили и родной дядя Иакова, оказался коварным и эгоистичным человеком: в самый праздничный день жизни Иакова он устраивает подлог, в результате которого Иаков получает в жены не Рахиль, а ее родную сестру. Иаков снова вынужден работать на своего бессовестного дядю, чтобы соединиться со своей возлюбленной. Они стали свободны только спустя много лет, и тогда началась новая история.--Тип релиза: DVDRip
Контейнер: AVI
Видео кодек:DivX
Видео: XDivX 5.x, размер кадра: 560x464, битрейт: 949 кб/с
Аудио: MP3, битрейт аудио: 128 кб/с,44.1 KHz--

Скриншоты

MI

General
Complete name : G:\видео\Библейская коллекция\2. (1994) Яаков (Jacob).avi
Format : AVI
Format/Info : Audio Video Interleave
File size : 693 MiB
Duration : 1h 30mn
Overall bit rate : 1 071 Kbps
Video
ID : 0
Format : MPEG-4 Visual
Format settings, BVOP : Yes
Format settings, QPel : No
Format settings, GMC : No warppoints
Format settings, Matrix : Default (H.263)
Muxing mode : Packed bitstream
Codec ID : DX50
Codec ID/Hint : DivX 5
Duration : 1h 30mn
Bit rate : 923 Kbps
Width : 560 pixels
Height : 464 pixels
Display aspect ratio : 4:3
Frame rate : 25.000 fps
Color space : YUV
Chroma subsampling : 4:2:0
Bit depth : 8 bits
Scan type : Progressive
Compression mode : Lossy
Bits/(Pixel*Frame) : 0.099
Stream size : 598 MiB (86%)
Title : Video
Writing library : DivX 5.2.1 Alpha (UTC 2004-09-08)
Audio
ID : 1
Format : MPEG Audio
Format version : Version 1
Format profile : Layer 3
Mode : Joint stereo
Mode extension : MS Stereo
Codec ID : 55
Codec ID/Hint : MP3
Duration : 1h 30mn
Bit rate mode : Variable
Bit rate : 96.0 Kbps
Channel(s) : 2 channels
Sampling rate : 44.1 KHz
Compression mode : Lossy
Stream size : 62.1 MiB (9%)
Alignment : Aligned on interleaves
Title : Audio

Бытие (Genesis:The creation and the flood).

-Библейская коллекция: Бытие. / The Bible - Genesis--Cтрана: Италия, США, Германия
Продолжительность:~01:30:15
Жанр: драма, история
Перевод: многоголосый закадровый (профессиональный)
Год выпуска:1994--Режиссер:Эрманно Ольми--В ролях: Омеро Антонутти, Сабир Азиз, B. Хаддан Мохамед--Описание:Библия начинается со всемирного творения, Адамы и Евы в раю, Каине и Абели и Ноя спасение из всемирного потопа. Эрманно Ольми, известный его фильмом дерево деревянного ботинка, ведет нас внутрь в поэзию и более глубокое значение этих вневременных историй, которые описывают ситуацию человека по миру. Старый кочевник в пастушьем лагере открывается нам как рассказчик акта творения, который по-новому происходит с каждым днем, и сопровождает нас дальше по тем сторонам фильма, которые делают библейское сообщество живым...--Тип релиза: DVDRip
Контейнер: AVI
Видео кодек:DivX
Видео: 640x480, битрейт: 778 кбит/с, фреймрейт: 23.976 FPS
Аудио: MP3, битрейт аудио: 96.0 кб/с--

Скришоты

MI

General
Complete name : G:\видео\Библейская коллекция\3. (1994) Бытие (GenesisThe creation and the flood).avi
Format : AVI
Format/Info : Audio Video Interleave
File size : 615 MiB
Duration : 1h 37mn
Overall bit rate : 884 Kbps
Video
ID : 0
Format : MPEG-4 Visual
Format settings, BVOP : No
Format settings, QPel : No
Format settings, GMC : No warppoints
Format settings, Matrix : Default (H.263)
Codec ID : DX50
Codec ID/Hint : DivX 5
Duration : 1h 37mn
Bit rate : 744 Kbps
Width : 640 pixels
Height : 480 pixels
Display aspect ratio : 4:3
Frame rate : 23.976 fps
Color space : YUV
Chroma subsampling : 4:2:0
Bit depth : 8 bits
Scan type : Progressive
Compression mode : Lossy
Bits/(Pixel*Frame) : 0.101
Stream size : 517 MiB (84%)
Writing library : DivX 5.2.0 (UTC 2004-07-15)
Audio
ID : 1
Format : MPEG Audio
Format version : Version 1
Format profile : Layer 3
Codec ID : 55
Codec ID/Hint : MP3
Duration : 1h 37mn
Bit rate mode : Constant
Bit rate : 96.0 Kbps
Channel(s) : 2 channels
Sampling rate : 44.1 KHz
Compression mode : Lossy
Video delay : 26ms
Stream size : 66.8 MiB (11%)
Alignment : Split accross interleaves
Title : Audio Stream

Самсон и Далила(Samson and Delilah)

-Библейская коллекция: :Самсон и Далила. / The Bible - Samson and Delilah
--
Cтрана: США,
Продолжительность:~01:22:17 + 01:19:49
Жанр: драма, история
Перевод: многоголосый закадровый (профессиональный)
Год выпуска:1995--Режиссер:Николас Роэг--В ролях: Деннис Хоппер, Даяна Ригг, Майкл Гэмбон, Эрик Таль, Элизабет Хэрли--Описание:Самсон - израильский богатырь, прославившийся в войнах с филистимлянами. Однажды на него напал лев, и Самсон растерзал его голыми руками. Много раз враги израильтян, филистимляне, покушались убить его, но всегда безуспешно. Любовь к филистимлянке Далиле погубила Самсона. Узнав, что сила героя заключается в его длинных волосах, она во время сна остригла ему волосы и предала в руки филистимлян. Язычники, выколов глаза, посадили Самсона в темницу. Согласно Ветхому Завету однажды мучители вывели Самсона на всенародное поругание в свой языческий храм. Самсон попросил отрока, водившего его за руку, подвести его к двум колоннам, на которых держалось все здание, чтобы прислониться к ним. Помолившись Богу, он уперся в столбы руками и сдвинул их с места. Здание обрушилось. Под развалинами здания погибли все филистимляне, бывшие там, а с ними и сам Самсон.--Тип релиза: DVDRip
Контейнер: AVI
Видео кодек:DivX
Видео:592x480, битрейт: 1036 кбит/с, фреймрейт: 25 FPS
Аудио: MP3, битрейт аудио: 128 кбит/с--

Скриншоты

MI

General
Complete name : G:\видео\Библейская коллекция\4. (1995) Самсон и Далила (Samson and Delilah)\Библейские сказания - Самсон и Далила 1ч.avi
Format : AVI
Format/Info : Audio Video Interleave
File size : 691 MiB
Duration : 1h 22mn
Overall bit rate : 1 174 Kbps
Writing library : VirtualDub build 18160/release
Video
ID : 0
Format : MPEG-4 Visual
Format settings, BVOP : No
Format settings, QPel : No
Format settings, GMC : No warppoints
Format settings, Matrix : Default (H.263)
Codec ID : DX50
Codec ID/Hint : DivX 5
Duration : 1h 22mn
Bit rate : 1 036 Kbps
Width : 592 pixels
Height : 480 pixels
Display aspect ratio : 5:4
Frame rate : 25.000 fps
Color space : YUV
Chroma subsampling : 4:2:0
Bit depth : 8 bits
Scan type : Progressive
Compression mode : Lossy
Bits/(Pixel*Frame) : 0.146
Stream size : 610 MiB (88%)
Writing library : DivX 5.1.1 (Maupiti) (UTC 2003-11-19)
Audio
ID : 1
Format : MPEG Audio
Format version : Version 1
Format profile : Layer 3
Mode : Joint stereo
Mode extension : MS Stereo
Codec ID : 55
Codec ID/Hint : MP3
Duration : 1h 22mn
Bit rate mode : Constant
Bit rate : 128 Kbps
Channel(s) : 2 channels
Sampling rate : 48.0 KHz
Compression mode : Lossy
Stream size : 75.3 MiB (11%)
Alignment : Split accross interleaves
Interleave, duration : 40 ms (1.00 video frame)
Interleave, preload duration : 500 ms

Иосиф (Joseph).

-Библейская коллекция: :Иосиф. / The Bible - Joseph
--
Cтрана: США- Италия - Германия
Продолжительность:~02:57,2сд
Жанр: драма, история
Перевод: многоголосый закадровый (профессиональный)
Год выпуска:1995--Режиссер:Роджер Янг--В ролях: Бен Кингсли , Пол Меркурио , Мартин Ландау , Моника Беллуччи--Описание:Преданный братьями, он скинул цепи рабства и вознесся к вершинам могущества.
Иосифа (Пол Меркурио) любимого из сыновей Иакова (Мартин Ландау), завистливые братья продали в рабство за чечевичную похлебку. Так Иосиф оказался в Египте, где его купил Потифар (Бен Кингсли), начальник охраны фараона. Несмотря на то, что Иосиф отверг заигрывания жены хозяина, его обвинили в прелюбодеянии и бросили в тюрьму. Но, благодаря своему дару толковать сны, Иосиф был представлен ко двору фараона (в роли жены фараона - Моника Беллуччи) и, несмотря на все превратности судьбы, стал одним из самых могущественных людей древнего мира...--Тип релиза: DVDRip
Контейнер: AVI
Видео кодек:DivX
Видео:704x528 (1.33:1), битрейт: 967 кбит/с, фреймрейт: 25 FPS
Аудио: MP3, битрейт аудио: 128 кбит/с--

Скриншоты

MI

General
Complete name : G:\видео\Библейская коллекция\5. (1995) Иосиф (Joseph)\Иосиф CD2.avi
Format : AVI
Format/Info : Audio Video Interleave
File size : 702 MiB
Duration : 1h 28mn
Overall bit rate : 1 112 Kbps
Writing application : Nandub v1.0rc2
Writing library : Nandub build 1853/release
Video
ID : 0
Format : MPEG-4 Visual
Format profile : Advanced Simple@L5
Format settings, BVOP : Yes
Format settings, QPel : No
Format settings, GMC : No warppoints
Format settings, Matrix : Default (MPEG)
Muxing mode : Packed bitstream
Codec ID : DX50
Codec ID/Hint : DivX 5
Duration : 1h 28mn
Bit rate : 931 Kbps
Width : 704 pixels
Height : 528 pixels
Display aspect ratio : 4:3
Frame rate : 25.000 fps
Color space : YUV
Chroma subsampling : 4:2:0
Bit depth : 8 bits
Scan type : Progressive
Compression mode : Lossy
Bits/(Pixel*Frame) : 0.100
Stream size : 588 MiB (84%)
Writing library : XviD 1.1.0 (UTC 2005-11-22)
Audio
ID : 1
Format : MPEG Audio
Format version : Version 1
Format profile : Layer 3
Mode : Joint stereo
Codec ID : 55
Codec ID/Hint : MP3
Duration : 1h 28mn
Bit rate mode : Constant
Bit rate : 128 Kbps
Channel(s) : 2 channels
Sampling rate : 48.0 KHz
Compression mode : Lossy
Stream size : 80.9 MiB (12%)
Alignment : Split accross interleaves

Моисей (Moses).

-Библейская коллекция: :Моисей. / The Bible - Moses
--
Cтрана: США, Чехия, Великобритания, Франция, Италия, Германия, Испания
Продолжительность:~2 серии ~ 90 мин. каждая
Жанр: драма, приключения, биография, история
Перевод: Профессиональный (многоголосый, закадровый)
Год выпуска:1995--Режиссер:Роджер Янг / Roger Young--В ролях: Бен Кингсли, Фрэнк Ланджелла, Кристофер Ли, Анна Гальена, Энрико Ло Версо, Дэвид Суше, Морис Роевз, Энтони Хиггинс, Филипп Леруа, Филип Стоун и др.--Описание:Когда фараон Египта Рамзес приказал убить всех еврейских детей, уцелел лишь младенец Моисей. Мать положила его в корзину, которую пустила плыть по Нилу. Дочь фараона нашла младенца, усыновила его, и он воспитывался вместе с наследником престола Мернефтой. Господь призвал Моисея вывести свой народ из египетского рабства в Землю обетованную.
Но Мернефта, занявший трон после смерти отца, отказался отпустить евреев. Лишь страшные знамения вынудили его не препятствовать Моисею. Пустившись в погоню за беглецами, фараон вместе со всей своей армией погиб в пучине Красного моря. Моисей же 40 лет водил свой народ по пустыне, чтобы избавить души соплеменников от рабства.--Тип релиза: DVDRip
Контейнер: AVI
Видео кодек: DivX
Аудио кодек: MP3 (MPEG1 Layer 3)
Видео: 512x384, битрейт: 971 кбит/с, фреймрейт: 25 FPS
Аудио: MP3,каналы: стерео, битрейт: 128 кбит/с--

Скриншоты

MI

General
Complete name : G:\видео\Библейская коллекция\6. (1996) Моисей (Moses)\Моисей CD1.avi
Format : AVI
Format/Info : Audio Video Interleave
File size : 683 MiB
Duration : 1h 26mn
Overall bit rate : 1 104 Kbps
Video
ID : 0
Format : MPEG-4 Visual
Format settings, BVOP : Yes
Format settings, QPel : No
Format settings, GMC : No warppoints
Format settings, Matrix : Default (H.263)
Muxing mode : Packed bitstream
Codec ID : DX50
Codec ID/Hint : DivX 5
Duration : 1h 26mn
Bit rate : 923 Kbps
Width : 512 pixels
Height : 384 pixels
Display aspect ratio : 4:3
Frame rate : 25.000 fps
Color space : YUV
Chroma subsampling : 4:2:0
Bit depth : 8 bits
Scan type : Progressive
Compression mode : Lossy
Bits/(Pixel*Frame) : 0.188
Stream size : 571 MiB (84%)
Writing library : DivX 5.0.5 Beta(Tahanea) (UTC 2003-01)
Audio
ID : 1
Format : MPEG Audio
Format version : Version 1
Format profile : Layer 3
Codec ID : 55
Codec ID/Hint : MP3
Duration : 1h 26mn
Bit rate mode : Constant
Bit rate : 128 Kbps
Channel(s) : 2 channels
Sampling rate : 48.0 KHz
Compression mode : Lossy
Stream size : 79.2 MiB (12%)
Alignment : Split accross interleaves

Давид (David).

-Библейская коллекция: :Давид. / The Bible - David
--
Страна: США, Италия
Год выхода: 1997
Жанр: драма, приключения, биография, история
Перевод: Профессиональный (двухголосый, закадровый)
Продолжительность: 2 серии ~ 01:27. каждая--Режиссер:Robert Markowitz--Описание:Давид родился в семье пастуха, но воспитывался пророками Самуилом и Натаном. Восхождение Давида к вершинам власти было нелегким. Ему довелось сразиться со многими врагами — от богатыря-гиганта филистимлян Голиафа до израильского царя Саула. За время своего сорокалетнего правления Давид пережил немало битв, предательств и потерь. Им двигали самые разные чувства — от страстной и запретной любви к Вирсавии до лютой ненависти к внешним и внутренним врагам. Он провел множество войн и пролил реки крови. Поэтому не ему было доверено Богом построить Храм Господень в Иерусалиме. Эта великая судьба выпала сыну Давида…--Тип релиза: DVDRip
Контейнер: AVI
Видео кодек: DivX
Аудио кодек: AC3 (Dolby Digital)
Видео: 688x512, битрейт: 970 кбит/с, фреймрейт: 25 FPSp
Аудио: AC-3, 48.0 KHz, 2 ch, 192 Kbps,48.0 KHz--

Скриншоты

MI

General
Complete name : G:\видео\Библейская коллекция\7.(1997) Давид (David)\David.01.iz.02.1997.DivX.DVDRip.Kinozal.tv.avi
Format : AVI
Format/Info : Audio Video Interleave
File size : 700 MiB
Duration : 1h 27mn
Overall bit rate : 1 114 Kbps
Writing application : FairUse Wizard - http://fairusewizard.com
Writing library : The best and REALLY easy backup tool
Video
ID : 0
Format : MPEG-4 Visual
Format settings, BVOP : Yes
Format settings, QPel : No
Format settings, GMC : No warppoints
Format settings, Matrix : Default (H.263)
Muxing mode : Packed bitstream
Codec ID : DX50
Codec ID/Hint : DivX 5
Duration : 1h 27mn
Bit rate : 869 Kbps
Width : 688 pixels
Height : 512 pixels
Display aspect ratio : 4:3
Frame rate : 25.000 fps
Color space : YUV
Chroma subsampling : 4:2:0
Bit depth : 8 bits
Scan type : Progressive
Compression mode : Lossy
Bits/(Pixel*Frame) : 0.099
Stream size : 546 MiB (78%)
Writing library : DivX 6.7.0 (UTC 2007-09-20)
Audio
ID : 1
Format : AC-3
Format/Info : Audio Coding 3
Mode extension : CM (complete main)
Codec ID : 2000
Duration : 1h 27mn
Bit rate mode : Constant
Bit rate : 192 Kbps
Channel(s) : 2 channels
Channel positions : Front: L R
Sampling rate : 48.0 KHz
Bit depth : 16 bits
Compression mode : Lossy
Stream size : 121 MiB (17%)
Alignment : Split accross interleaves

Соломон (Solomon).

-Библейская коллекция: :Соломон. / The Bible - Solomon
--
Страна: США
Год выхода: 1997
Жанр: драма, приключения, биография, история
Перевод: Профессиональный (многоголосый, закадровый)
Продолжительность: ~ 1:27:23--Режиссер:Roger Young
Описание:История великого царя. Сын Давида (Макс фон Сюдов) и Вирсавии (Анук Эме), царь Соломон (Бен Кросс) прожил бурную и героическую жизнь. Его правление называли «Божественным даром». Он прославился огромной мудростью, обладал неслыханными богатствами, построил величественный Иерусалимский храм и сделал свою страну могучим и процветающим государством. И, конечно же, у Соломона было очень много женщин – от красавицы Абишаг (Мария Грациа Кучинотта), прибывшей во дворец, чтобы скрасить последние годы престарелого царя Давида, до Царицы Савской (Вивика А.Фокс), о любовном и политическом союзе с которой говорил весь древний мир...--Тип релиза: DVDRip
Контейнер: AVI
Видео кодек: DivX
Аудио кодек: AC3 (Dolby Digital)
Видео:528x400, битрейт: 736 кбит/с, фреймрейт: 23.976 FPS
Аудио: AC-3, 48.0 KHz, 6 ch, 384 Kbps ,--

Скриншоты

MI

General
Complete name : G:\видео\Библейская коллекция\8. (1997) Соломон (Solomon).avi
Format : AVI
Format/Info : Audio Video Interleave
File size : 1.37 GiB
Duration : 2h 53mn
Overall bit rate : 1 129 Kbps
Writing application : VirtualDubMod 1.4.13
Writing library : VirtualDub build 14328/release
Video
ID : 0
Format : MPEG-4 Visual
Format settings, BVOP : Yes
Format settings, QPel : No
Format settings, GMC : No warppoints
Format settings, Matrix : Default (H.263)
Muxing mode : Packed bitstream
Codec ID : DX50
Codec ID/Hint : DivX 5
Duration : 2h 53mn
Bit rate : 692 Kbps
Width : 528 pixels
Height : 400 pixels
Display aspect ratio : 4:3
Frame rate : 23.976 fps
Color space : YUV
Chroma subsampling : 4:2:0
Bit depth : 8 bits
Scan type : Progressive
Compression mode : Lossy
Bits/(Pixel*Frame) : 0.137
Stream size : 859 MiB (61%)
Writing library : DivX 5.1.1 (Maupiti) (UTC 2003-11-19)
Audio
ID : 1
Format : AC-3
Format/Info : Audio Coding 3
Mode extension : CM (complete main)
Codec ID : 2000
Duration : 2h 53mn
Bit rate mode : Constant
Bit rate : 384 Kbps
Channel(s) : 6 channels
Channel positions : Front: L C R, Side: L R, LFE
Sampling rate : 48.0 KHz
Bit depth : 16 bits
Compression mode : Lossy
Video delay : 226ms
Stream size : 477 MiB (34%)
Alignment : Split accross interleaves

Иеремия (Jeremiah).

-Библейская коллекция: :Иеремия. / The Bible - Jeremiah
--
Страна: США, Германия
Год выхода: 1998
Жанр: драма, приключения, биография, история
Перевод: Профессиональный (многоголосый, закадровый)
Продолжительность: ~ 01:29:31--Режиссер:Lorenzo Minoli--Описание:Иеремия - следующий фильм из серии "Библейская коллекция". Этот фильм рассказывает о судьбе пророка Иеремии. С детства он слышал голос Божий и передавал весть с Небес своему народу - Израилю. Иеремия не пытался угодить людям и всегда говорил правду. Но собратья возненавидели его за слова обличения. Скоро и сам царь разгневался на пророка, предрекавшего ему позорный конец в вавилонском плену.
Многие в Иудее желали погубить Иеремию и запрещали ему пророчествовать, но Господь всегда был рядом с Иеремией, избавляя его от смерти.--Тип релиза: DVDRip
Контейнер: AVI
Видео кодек: DivX
Аудио кодек: MP3 (MPEG1 Layer 3)
Видео: 576x448, битрейт: 942 кбит/с, фреймрейт: 25 FPS
Аудио: MPEG Audio,128 Kbps,2 channels,48.0 KHz

Скриншоты

MI

General
Complete name : G:\видео\Библейская коллекция\9. (1998) Иеремия (Jeremiah).avi
Format : AVI
Format/Info : Audio Video Interleave
File size : 691 MiB
Duration : 1h 29mn
Overall bit rate : 1 079 Kbps
Writing library : VirtualDub build 18160/release
Video
ID : 0
Format : MPEG-4 Visual
Format settings, BVOP : No
Format settings, QPel : No
Format settings, GMC : No warppoints
Format settings, Matrix : Default (H.263)
Codec ID : DX50
Codec ID/Hint : DivX 5
Duration : 1h 29mn
Bit rate : 900 Kbps
Width : 576 pixels
Height : 448 pixels
Display aspect ratio : 1.286
Frame rate : 25.000 fps
Color space : YUV
Chroma subsampling : 4:2:0
Bit depth : 8 bits
Scan type : Progressive
Compression mode : Lossy
Bits/(Pixel*Frame) : 0.139
Stream size : 576 MiB (83%)
Writing library : DivX 5.1.1 (Maupiti) (UTC 2003-11-19)
Audio
ID : 1
Format : MPEG Audio
Format version : Version 1
Format profile : Layer 3
Mode : Joint stereo
Mode extension : MS Stereo
Codec ID : 55
Codec ID/Hint : MP3
Duration : 1h 29mn
Bit rate mode : Constant
Bit rate : 128 Kbps
Channel(s) : 2 channels
Sampling rate : 48.0 KHz
Compression mode : Lossy
Stream size : 82.0 MiB (12%)
Alignment : Split accross interleaves

Есфирь (Esther).

-Библейская коллекция: :Есфирь. / The Bible - Esther
--
Страна: США, Германия,Италия
Год выхода: 1999
Жанр: драма, приключения, биография, история
Перевод: Профессиональный (многоголосый, закадровый)
Продолжительность: ~ 01:30--Режиссер:Lorenzo Minoli--Описание:Эту удивительную историю спасения от неминуемой гибели целого народа, можно найти на страницах Библии.
В те далекие времена Израиль был в рабстве у Мидо-Персидского царя Артаксеркса. Отвергнув своенравную царицу Астинь (Орнелла Мути), он решил выбрать новую супругу из всех девушек своей империи. Неожиданно для всех ею стала иудейская девушка - Есфирь.
В картине реалистично воссоздана жизнь евреев в древней Персии, библейские персонажи ярко представлены известными актерами, особое настроение создает проникновенная музыка Карло Силиотто.
В этом фильме показано, что такое власть и насколько она зависит от тех людей, которые окружают тебя. Посмотри на людей, которые влияют на тебя и твой выбор.--Тип релиза: DVDRip
Контейнер: AVI
Видео кодек: DivX
Аудио кодек: MP3 (MPEG1 Layer 3)
Видео: 592x464, битрейт: 989 кбит/с, фреймрейт: 25 FPS
Аудио: MPEG Audio,128 Kbps,2 channels,48.0 KHz--

Скриншоты

MI

General
Complete name : G:\видео\Библейская коллекция\10. (1999) Есфирь (Esther).avi
Format : AVI
Format/Info : Audio Video Interleave
File size : 689 MiB
Duration : 1h 25mn
Overall bit rate : 1 123 Kbps
Writing library : VirtualDub build 18160/release
Video
ID : 0
Format : MPEG-4 Visual
Format settings, BVOP : No
Format settings, QPel : No
Format settings, GMC : No warppoints
Format settings, Matrix : Default (H.263)
Codec ID : DX50
Codec ID/Hint : DivX 5
Duration : 1h 25mn
Bit rate : 942 Kbps
Width : 592 pixels
Height : 464 pixels
Display aspect ratio : 1.276
Frame rate : 25.000 fps
Color space : YUV
Chroma subsampling : 4:2:0
Bit depth : 8 bits
Scan type : Progressive
Compression mode : Lossy
Bits/(Pixel*Frame) : 0.137
Stream size : 578 MiB (84%)
Writing library : DivX 5.1.1 (Maupiti) (UTC 2003-11-19)
Audio
ID : 1
Format : MPEG Audio
Format version : Version 1
Format profile : Layer 3
Mode : Joint stereo
Codec ID : 55
Codec ID/Hint : MP3
Duration : 1h 25mn
Bit rate mode : Constant
Bit rate : 128 Kbps
Channel(s) : 2 channels
Sampling rate : 48.0 KHz
Compression mode : Lossy
Stream size : 78.5 MiB (11%)
Alignment : Split accross interleaves

Иисус (Jesus).

-Библейская коллекция: :Иисус. / The Bible - Jesus
--
Страна: США / Италия / Франция / Германия / Чехия
Год выхода: 1999
Жанр: драма, приключения, биография, история
Перевод: Профессиональный (многоголосый, закадровый)
Продолжительность: ~ 02:56, два диска--Режиссер:Роджер Янг--Описание:Масштабное и зрелищное эпическое сказание о земной жизни Иисуса из Назарета. Спаситель (Джереми Систо - "Белый шквал", "Глаза ангела") родился в семье бедного плотника Иосифа и простой женщины Марии (Жаклин Биссет - "Сотворение мира", "Дикая орхидея"). Проведя сорок дней в пустыне, где его искушал Сатана (Йерун Краббе - "Без пощады", "Искры из глаз"), Иисус начал проповедовать свое учение, навсегда изменившее мир. После беседы с ним сам римский прокуратор Понтий Пилат (Гэри Олдмэн - "Алая буква", "Ромео истекает кровью") вынужден был усомниться в могуществе Рима, владевшего тогда половиной мира...--Тип релиза: DVDRip
Контейнер: AVI
Видео кодек: DivX
Аудио кодек: MP3 (MPEG1 Layer 3)
Видео: 512 x 384, битрейт: 952 кбит/с, фреймрейт: 25 FPS
Аудио: MPEG Audio,128 Kbps,2 channels,48.0 KHz--

Скриншоты

MI

General
Complete name : G:\видео\Библейская коллекция\11.(1999) Иисус (Jesus)\Jesus CD1.avi
Format : AVI
Format/Info : Audio Video Interleave
File size : 686 MiB
Duration : 1h 28mn
Overall bit rate : 1 087 Kbps
Video
ID : 0
Format : MPEG-4 Visual
Format settings, BVOP : Yes
Format settings, QPel : No
Format settings, GMC : No warppoints
Format settings, Matrix : Default (H.263)
Muxing mode : Packed bitstream
Codec ID : DX50
Codec ID/Hint : DivX 5
Duration : 1h 28mn
Bit rate : 907 Kbps
Width : 512 pixels
Height : 384 pixels
Display aspect ratio : 4:3
Frame rate : 25.000 fps
Color space : YUV
Chroma subsampling : 4:2:0
Bit depth : 8 bits
Scan type : Progressive
Compression mode : Lossy
Bits/(Pixel*Frame) : 0.185
Stream size : 572 MiB (83%)
Writing library : DivX 5.0.5 Beta(Tahanea) (UTC 2003-01)
Audio
ID : 1
Format : MPEG Audio
Format version : Version 1
Format profile : Layer 3
Codec ID : 55
Codec ID/Hint : MP3
Duration : 1h 28mn
Bit rate mode : Constant
Bit rate : 128 Kbps
Channel(s) : 2 channels
Sampling rate : 48.0 KHz
Compression mode : Lossy
Stream size : 80.7 MiB (12%)
Alignment : Split accross interleaves

Мария, мать Иисуса / Mary, Mother of Jesus.

-Библейская коллекция: :Мария, мать Иисуса. / The Bible - Mary, Mother of Jesus
--
Страна: США
Год выхода: 1999
Жанр: драма, приключения, биография, история
Перевод: Профессиональный (полное дублирование)
Продолжительность: ~ 01:28:00--Режиссер:Кевин Коннор--Описание«Мария мать Иисуcа» — свежий взгляд на Новый Завет, фантазия на евангельскую тему. Это не история Иисуса из Назарета, а история его МАТЕРИ, разворачивющаяся на фоне мeссианских страстей, бурлящих в покоренной Римом Иудее. Необходимость перемен ощущается в знойном воздухе, в затравленных, а порой, и в горящих решимостью взглядах. Чужаки топчут Святую землю. Завоеватели ведут себя, как и положено римлянам: «горе побежденным». Народ иудейский в ожидании Мессии. Обстановка накалена до предела, люди не знают, куда идти, кому верить. Большинство, спасаясь от страшной действительности, судорожно хватаются за выполнение древних законов, не пытаясь понять смысла . Бог повелел. Так написано в книгах. Так было. И так будет. Cлово Создателя неизменно, и не важно, что понять его нам не дано, — главное не пускать в душу ненужную жалость! Богу видней, он занет лучше, что хорошо для его творенья. Мы видим юную Марию, красивую, нежную, добросердечную, она заступается за приговоренную к смерти женщину, говоря, что Бог не хочет этого, это люди изврaтили его его слова, но встречает фанатичный отпор старцев, приверженцев старого Закона.--Тип релиза: DVDRip
Контейнер: AVI
Видео кодек: DivX
Аудио кодек: MP3 (MPEG1 Layer 3)
Видео: 576x384, битрейт: 952 кбит/с, фреймрейт: 29.970 FPS
Аудио: MPEG Audio,128 Kbps,2 channels,48.0 KHz--

Скриншоты

MI

General
Complete name : G:\видео\Библейская коллекция\12.(1999) Мария, мать Иисуса (Mary, Mother of Jesus).avi
Format : AVI
Format/Info : Audio Video Interleave
File size : 687 MiB
Duration : 1h 28mn
Overall bit rate : 1 091 Kbps
Writing library : VirtualDub build 18160/release
Video
ID : 0
Format : MPEG-4 Visual
Format profile : Advanced Simple@L5
Format settings, BVOP : Yes
Format settings, QPel : No
Format settings, GMC : No warppoints
Format settings, Matrix : Default (H.263)
Muxing mode : Packed bitstream
Codec ID : XVID
Codec ID/Hint : XviD
Duration : 1h 28mn
Bit rate : 911 Kbps
Width : 576 pixels
Height : 384 pixels
Display aspect ratio : 3:2
Frame rate : 29.970 fps
Color space : YUV
Chroma subsampling : 4:2:0
Bit depth : 8 bits
Scan type : Progressive
Compression mode : Lossy
Bits/(Pixel*Frame) : 0.137
Stream size : 574 MiB (84%)
Writing library : XviD 1.0.0 RC4 (Hola) (UTC 2004-04-05)
Audio
ID : 1
Format : MPEG Audio
Format version : Version 1
Format profile : Layer 3
Mode : Joint stereo
Mode extension : MS Stereo
Codec ID : 55
Codec ID/Hint : MP3
Duration : 1h 28mn
Bit rate mode : Constant
Bit rate : 128 Kbps
Channel(s) : 2 channels
Sampling rate : 48.0 KHz
Compression mode : Lossy
Stream size : 80.6 MiB (12%)
Alignment : Split accross interleaves

В начале/Сотворение мира (In the Beginning).

-Библейская коллекция: :В начале/Сотворение мира. / The Bible - In the Beginning
--
Страна: США
Год выхода: 2000
Жанр: драма, приключения, биография, история
Перевод: Профессиональный (многоголосый,закадровый)
Продолжительность: ~ 01:27:06 + 01:26:26 ,2 серии--Режиссер:Кевин Коннор / Kevin Connor--ОписаниеМир до Иисуса Христа. Жертва Авраама, избиение младенцев, вывод народа из египетского плена и заповеди, которые Господь дал Моисею на горе Синай - тяжкий путь к вере и ценностям, которые стали законом жизни. Это истории веры, надежды и мужества, людских страстей, ревности и предательства, ожиданий, искушений, испытаний, и, конечно же, любви. Самое главное, что связывает их воедино - это мечта отыскать Землю Обетованную, стряхнуть оковы рабства и обрести свободу. Великие времена, великие герои, великие чудеса.... Фильм отражает дух и историческое значение библейских сюжетов. Создан на основе первых двух книг Ветхого Завета - Бытие, Исход.--Описание серий:1-я серия: Cотворение Мира, Авраам, Исаак, Иаков, Иосиф.
2-я серия: Рабство Иосифа, Моисей, Великий Исход, Гора Синай, Десять Заповедей, Земля Обетованная.--Тип релиза: DVDRip
Контейнер: AVI
Видео кодек: DivX
Аудио кодек: MP3 (MPEG1 Layer 3)
Видео: 528x384, битрейт: 985 кбит/с, фреймрейт: 25 FPS
Аудио: MPEG Audio,128 Kbps,2 channels,48.0 KHz--

Скриншоты

MI

General
Complete name : G:\видео\Библейская коллекция\13. (2000) В начале Сотворение мира (In the Beginning)\V_Nachale.cd.2.avi
Format : AVI
Format/Info : Audio Video Interleave
File size : 695 MiB
Duration : 1h 26mn
Overall bit rate : 1 124 Kbps
Writing library : VirtualDub build 14279/release
Video
ID : 0
Format : MPEG-4 Visual
Codec ID : DIV3
Codec ID/Hint : DivX 3 Low
Duration : 1h 26mn
Bit rate : 943 Kbps
Width : 528 pixels
Height : 384 pixels
Display aspect ratio : 1.375
Frame rate : 25.000 fps
Color space : YUV
Chroma subsampling : 4:2:0
Bit depth : 8 bits
Compression mode : Lossy
Bits/(Pixel*Frame) : 0.186
Stream size : 583 MiB (84%)
Audio
ID : 1
Format : MPEG Audio
Format version : Version 1
Format profile : Layer 3
Mode : Joint stereo
Mode extension : MS Stereo
Codec ID : 55
Codec ID/Hint : MP3
Duration : 1h 26mn
Bit rate mode : Constant
Bit rate : 128 Kbps
Channel(s) : 2 channels
Sampling rate : 48.0 KHz
Compression mode : Lossy
Stream size : 79.1 MiB (11%)
Alignment : Split accross interleaves

Святой Павел (Paul of Tarsos).

-Библейская коллекция:Святой Павел. / The Bible - Paul of Tarsos
--
Страна: Италия, Чехия, Германия
Год выхода: 2000
Жанр: драма, приключения, биография, история
Перевод: Профессиональный (многоголосый,закадровый)
Продолжительность: ~ 02:20:34--Режиссер:Роджер Янг / Roger Young--Описание:Кем был человек, превративший учение поклонников Христа в мировую религию - христианство
Жизненный путь человека, благодаря которому учение Христа стало мировой религией. Что изменило сознание гонителя Иисуса и сделало его проповедником христианства, известным под именем Святого Павла.--Тип релиза: DVDRip
Контейнер: AVI
Видео кодек: XviD
Аудио кодек: MP3 (MPEG1 Layer 3)
Видео: 720x544, битрейт: 1274 кбит/с, фреймрейт: 25 FPS
Аудио: MPEG Audio,104 Kbps,2 channels,48.0 KHz

Скриншоты

MI

General
Complete name : G:\видео\Библейская коллекция\14.(2000) Святой Павел (Paul of Tarsos).avi
Format : AVI
Format/Info : Audio Video Interleave
File size : 1.37 GiB
Duration : 2h 20mn
Overall bit rate : 1 391 Kbps
Writing application : VirtualDubMod 1.5.4.1 (build 2178/release)
Writing library : VirtualDubMod build 2178/release
Video
ID : 0
Format : MPEG-4 Visual
Format profile : Advanced Simple@L5
Format settings, BVOP : Yes
Format settings, QPel : No
Format settings, GMC : No warppoints
Format settings, Matrix : Custom
Codec ID : XVID
Codec ID/Hint : XviD
Duration : 2h 20mn
Bit rate : 1 223 Kbps
Width : 720 pixels
Height : 544 pixels
Display aspect ratio : 4:3
Frame rate : 25.000 fps
Color space : YUV
Chroma subsampling : 4:2:0
Bit depth : 8 bits
Scan type : Progressive
Compression mode : Lossy
Bits/(Pixel*Frame) : 0.125
Stream size : 1.20 GiB (88%)
Writing library : XviD 1.1.0 (UTC 2005-11-22)
Audio
ID : 1
Format : MPEG Audio
Format version : Version 1
Format profile : Layer 3
Mode : Joint stereo
Mode extension : MS Stereo
Codec ID : 55
Codec ID/Hint : MP3
Duration : 2h 20mn
Bit rate mode : Variable
Bit rate : 104 Kbps
Nominal bit rate : 128 Kbps
Channel(s) : 2 channels
Sampling rate : 48.0 KHz
Compression mode : Lossy
Stream size : 104 MiB (7%)
Alignment : Aligned on interleaves
Writing library : LAME3.97b
Encoding settings : -m j -V 4 -q 2 -lowpass 17 --abr 128

Апокалипсис (Apocalypse).

-Библейская коллекция: Апокалипсис. / The Bible - Apocalypse
--
Страна: США
Год выхода: 2002
Жанр: драма, приключения, биография, история
Перевод: Профессиональный (многоголосый,закадровый)
Продолжительность: ~ 01:33--Режиссер:Раффаэль Мертес/Raffaele Mertes/--Описание:90-й год новой эры. Римский император Домициан объявляет себя богом, а христиан, не признающих его божественности, - злейшими врагами государства. Престарелый апостол Иоанн, под чужим именем находящийся в заточении на острове Патмос, получает Божественное Откровение о последних днях мира. Движимая желанием увидеть последнего очевидца Страстей Христовых молодая христианка Ирина тайно проникает на остров. Иоанн доверяет ей распространить среди единоверцев записанное им Откровение. Но Ирина не подозревает, что ее возлюбленный Валерий, сын римского полководца Квинта, получил задание выследить Иоанна…--Тип релиза: DVDRip
Контейнер: AVI
Видео кодек: DivX
Аудио кодек: AC3 (Dolby Digital)
Видео: 632x352, битрейт: 923 кбит/с, фреймрейт: 25 FPS
Аудио: AC-3, 2 ch, 192 Kbps,48.0 KHz

Скриншоты

MI

General
Complete name : G:\видео\Библейская коллекция\15. (2002) Апокалипсис (Apocalypse).avi
Format : AVI
Format/Info : Audio Video Interleave
File size : 747 MiB
Duration : 1h 32mn
Overall bit rate : 1 125 Kbps
Writing library : VirtualDub-MPEG2 build 23843/release
Video
ID : 0
Format : MPEG-4 Visual
Format profile : Advanced Simple@L5
Format settings, BVOP : Yes
Format settings, QPel : No
Format settings, GMC : No warppoints
Format settings, Matrix : Default (MPEG)
Codec ID : DX50
Codec ID/Hint : DivX 5
Duration : 1h 32mn
Bit rate : 923 Kbps
Width : 632 pixels
Height : 352 pixels
Display aspect ratio : 16:9
Frame rate : 25.000 fps
Color space : YUV
Chroma subsampling : 4:2:0
Bit depth : 8 bits
Scan type : Progressive
Compression mode : Lossy
Bits/(Pixel*Frame) : 0.166
Stream size : 613 MiB (82%)
Writing library : XviD 1.0.3 (UTC 2004-12-20)
Audio
ID : 1
Format : AC-3
Format/Info : Audio Coding 3
Mode extension : CM (complete main)
Codec ID : 2000
Duration : 1h 32mn
Bit rate mode : Constant
Bit rate : 192 Kbps
Channel(s) : 2 channels
Channel positions : Front: L R
Sampling rate : 48.0 KHz
Bit depth : 16 bits
Compression mode : Lossy
Stream size : 127 MiB (17%)
Alignment : Split accross interleaves
Interleave, duration : 40 ms (1.00 video frame)
Interleave, preload duration : 500 ms

Магдалина: освобождение от позора / Magdalena: Released from Shame.

-Библейская коллекция: Магдалина: освобождение от позора. / The Bible - Magdalena: Released from Shame
--
Страна: США
Год выхода: 2007
Жанр: драма, приключения, биография, история
Перевод: Профессиональный (полное дублирование)
Продолжительность: ~ 01:19:50--Режиссер:Чарли Джордан Брукинс (Charlie Jordan Brookins)--Описание:Одна женщина была уличена в прелюбодеянии, вторая отвергнута и игнорируемая из-за ее распутного образа жизни, третью избегали двенадцать лет из-за ее позорного состояния, четвертая - вдова, женщина, лишившаяся своего единственного сына, другие, которые считались отбросами общества. Уродство позора, печаль и безнадежность, горечь и разочарование - это то, через что прошлось пройти этим женщинам. На протяжении трех лет Мария Магдалина следовала за Иисусом и была свидетелем многих чудес. Она также повествует о произошедших изменениях в ее жизни, чудесах, восстановленной надежде и новому отношению к людям, которому Мария научилась у Иисуса. Он радикально изменил ее жизнь, изгнав бесов и тем самым освободил от стыда. В этом фильме Мария Магдалина выступает в роли рассказчика, и участника этой истории жизни, когда повстречавшись с человеком по имени Иисус она была освобождена от стыда.--Тип релиза: DVDRip
Контейнер: AVI
Видео кодек: DivX
Аудио кодек: MP3 (MPEG1 Layer 3)
Видео: 640x368, битрейт: 1102 кбит/с, фреймрейт: 25 FPS
Аудио: MPEG Audio,112 Kbps,2 channels,48.0 KHz

Скриншоты

MI

General
Complete name : G:\видео\Библейская коллекция\16. (2007) Магдалина освобождение от позора ( Magdalena Released from Shame).avi
Format : DivX
Format/Info : Audio Video Interleave
File size : 699 MiB
Duration : 1h 19mn
Overall bit rate : 1 224 Kbps
Video
ID : 0
Format : MPEG-4 Visual
Format settings, BVOP : Yes
Format settings, QPel : No
Format settings, GMC : No warppoints
Format settings, Matrix : Default (H.263)
Muxing mode : Packed bitstream
Codec ID : DX50
Codec ID/Hint : DivX 5
Duration : 1h 19mn
Bit rate : 1 102 Kbps
Width : 640 pixels
Height : 368 pixels
Display aspect ratio : 16:9
Frame rate : 25.000 fps
Color space : YUV
Chroma subsampling : 4:2:0
Bit depth : 8 bits
Scan type : Progressive
Compression mode : Lossy
Bits/(Pixel*Frame) : 0.187
Stream size : 630 MiB (90%)
Title : Main
Writing library : DivX 6.4.0 (UTC 2006-10-03)
Audio
ID : 1
Format : MPEG Audio
Format version : Version 1
Format profile : Layer 3
Mode : Joint stereo
Mode extension : MS Stereo
Codec ID : 55
Codec ID/Hint : MP3
Duration : 1h 19mn
Bit rate mode : Constant
Bit rate : 112 Kbps
Channel(s) : 2 channels
Sampling rate : 48.0 KHz
Compression mode : Lossy
Stream size : 64.0 MiB (9%)
Alignment : Split accross interleaves
Interleave, duration : 40 ms (1.00 video frame)
Interleave, preload duration : 500 ms
Title : Audio - ru
Writing library : LAME3.97 (beta)

Иисус (По Евангелию от Матфея) / The Visual Bible: Matthew

-Библейская коллекция: Иисус (По Евангелию от Матфея). / The Bible - The Visual Bible: Matthew
--
Страна: ЮАР
Год выхода: 1993
Жанр: драма, приключения, биография, история
Перевод: Профессиональный (полное дублирование)
Продолжительность: ~ 01:44:50--Режиссер:Регардт Ван Ден Берг/Regardt Van Den Bergh--В ролях: Ричард Кили (Richard Kiley), Геррит Шунховен (Gerrit Schoonhoven), Брюс Марчиано (Bruce Marchiano), Кевин Смит (Kevin Smith)--Описание:Экранизация Евангелия от Матфея.--Тип релиза: SATRip
Контейнер: AVI
Видео кодек: XviD
Аудио кодек: MP3 (MPEG1 Layer 3)
Видео: 720x544, битрейт: 1760 кбит/с, фреймрейт: 25 FPS
Аудио: MPEG Audio,93.2 Kbps,2 channels,48.0 KHz--

Скриншоты

MI

General
Complete name : G:\видео\Библейская коллекция\17.(1993) Иисус (По Евангелию от Матфея) The Visual Bible Matthew.avi
Format : AVI
Format/Info : Audio Video Interleave
File size : 1.37 GiB
Duration : 1h 44mn
Overall bit rate : 1 867 Kbps
Writing application : VirtualDubMod 1.5.4.1 (build 2178/release)
Writing library : VirtualDubMod build 2178/release
Video
ID : 0
Format : MPEG-4 Visual
Format profile : Advanced Simple@L5
Format settings, BVOP : Yes
Format settings, QPel : No
Format settings, GMC : No warppoints
Format settings, Matrix : Custom
Codec ID : XVID
Codec ID/Hint : XviD
Duration : 1h 44mn
Bit rate : 1 691 Kbps
Width : 720 pixels
Height : 544 pixels
Display aspect ratio : 4:3
Frame rate : 25.000 fps
Color space : YUV
Chroma subsampling : 4:2:0
Bit depth : 8 bits
Scan type : Progressive
Compression mode : Lossy
Bits/(Pixel*Frame) : 0.173
Stream size : 1.24 GiB (91%)
Writing library : XviD 1.1.0 (UTC 2005-11-22)
Audio
ID : 1
Format : MPEG Audio
Format version : Version 1
Format profile : Layer 3
Codec ID : 55
Codec ID/Hint : MP3
Duration : 1h 44mn
Bit rate mode : Variable
Bit rate : 93.2 Kbps
Nominal bit rate : 128 Kbps
Channel(s) : 1 channel
Sampling rate : 48.0 KHz
Compression mode : Lossy
Stream size : 69.9 MiB (5%)
Alignment : Aligned on interleaves
Writing library : LAME3.97b
Encoding settings : -m m -V 4 -q 2 -lowpass 20.5 --abr 128


Последний раз редактировалось: 3232fox (2014-01-04 02:31), всего редактировалось 26 раз(а)
[Торрент-статистика]
[Профиль]  [ЛС] 
Показать сообщения:    
Ответить на тему

Текущее время: Сегодня 01:49

Часовой пояс: GMT + 4



Вы не можете начинать темы
Вы не можете отвечать на сообщения
Вы не можете редактировать свои сообщения
Вы не можете удалять свои сообщения
Вы не можете голосовать в опросах
Вы не можете прикреплять файлы к сообщениям
Вы не можете скачивать файлы