Терминатор 2: Два брата терминавта или день подводника / Terminator 2: Judgment Day (Джеймс Кэмерон / James Cameron) [1991 г., пародия, комедия, фантастика, боевик, триллер, SATRip]

Ответить на тему
 
Автор
Сообщение

Romario1984 ®

Пол:

Стаж: 4 года

Сообщений: 22

Репутация: 53 [+] [-]

Откуда: Украина *****

Пост 16-Фев-2014 22:39

[Цитировать] 

Терминатор 2: Два брата терминавта или день подводника / Terminator 2: Judgment Day- Год выпуска: 1991
Страна: США
Жанр: пародия, комедия, фантастика, боевик, триллер
Продолжительность: 02:16:34
Перевод: Любительский одноголосный (Студия "Держиморда Филмс")
Режиссер: Джеймс Кэмерон / James Cameron
В ролях:
Арнольд Шварценеггер / Arnold Schwarzenegger, Линда Хэмилтон / Linda Hamilton, Эдвард Ферлонг / Edward Furlong, Роберт Патрик / Robert Patrick, Эрл Боэн / Earl Boen, Джо Мортон / Joe Morton, С. Эпата Меркерсон / S. Epatha Merkerson, Кастуло Герра / Castulo Guerra, Дэнни Кукси / Danny Cooksey, Дженетт Голдстин / Jenette Goldstein, Ксандер Беркли / Xander Berkeley, Лесли Хэмилтон Геррен / Leslie Hamilton Gearren, Кен Гиббел / Ken Gibbel, Роберт Уинли / Robert Winley, Питер Шрум / Peter Schrum, Шэйн Уайлдер / Shane Wilder, Майкл Эдвардс / Michael Edwards
Описание:
Медицина - великая вещь, особенно фармацевтика. Остеопороз - бич человечества - повержен с помощью термината кальция - волшебного препарата, превращающего трухлявые кости в мощный титановый скелет. Но передоз привёл к страшным последствиям. Два брата-терминавта Вован и Сашок совсем свинтили. Сашок полетел в прошлое прикончить Жору Корнева, сына подводницы Сары, пока тот ещё мал и не успел поставить ограничители на всех терминавтов. Вован поспешил вслед выручать Жору...
Тип релиза: SATRip
Контейнер: AVI
Видео кодек: DivX
Аудио кодек: MP3
Видео: MPEG4, DivX 4, 640x368 (16:9), 23.976 fps, 568 Kbps (0.101 bit/pixel)
Аудио: MP3, 44.1 KHz, 2 ch, 128 Kbps, CBR

MI

Код:
General
Complete name                            : E:\downloads\(Goblin) Terminator 2 Den' Podvodnika_[tfile.ru].avi
Format                                   : AVI
Format/Info                              : Audio Video Interleave
File size                                : 689 MiB
Duration                                 : 2h 16mn
Overall bit rate                         : 706 Kbps
Writing library                          : VirtualDub build 13130/release
Video
ID                                       : 0
Format                                   : MPEG-4 Visual
Format settings, BVOP                    : Yes
Format settings, QPel                    : No
Format settings, GMC                     : No warppoints
Format settings, Matrix                  : Default (H.263)
Codec ID                                 : DIVX
Codec ID/Info                            : Project Mayo
Codec ID/Hint                            : DivX 4
Duration                                 : 2h 16mn
Bit rate                                 : 568 Kbps
Width                                    : 640 pixels
Height                                   : 368 pixels
Display aspect ratio                     : 1.739
Frame rate                               : 23.976 fps
Color space                              : YUV
Chroma subsampling                       : 4:2:0
Bit depth                                : 8 bits
Scan type                                : Progressive
Compression mode                         : Lossy
Bits/(Pixel*Frame)                       : 0.101
Stream size                              : 555 MiB (81%)
Audio
ID                                       : 1
Format                                   : MPEG Audio
Format version                           : Version 1
Format profile                           : Layer 3
Mode                                     : Joint stereo
Mode extension                           : MS Stereo
Codec ID                                 : 55
Codec ID/Hint                            : MP3
Duration                                 : 2h 16mn
Bit rate mode                            : Constant
Bit rate                                 : 128 Kbps
Channel count                            : 2 channels
Sampling rate                            : 44.1 KHz
Compression mode                         : Lossy
Stream size                              : 125 MiB (18%)
Alignment                                : Split accross interleaves
Interleave, duration                     : 42 ms (1.00 video frame)
Interleave, preload duration             : 500 ms

Скриншоты




Последний раз редактировалось: Romario1984 (2014-02-17 00:11), всего редактировалось 6 раз(а)
[Торрент-статистика]
[Профиль]  [ЛС] 

ArtZak

Пол:

Стаж: 6 лет

Сообщений: 2996

Репутация: 1363 [+] [-]

Откуда: Россия

Пост 18-Фев-2014 00:33 (спустя 1 день 1 час)

[Цитировать] 

Romario1984, оформил как нужно.
Не знаю будете Вы выкладывать релизы дальше или нет - никогда не "кусайте" руку помогающему! Тем более нельзя игнорировать замечания модераторов и пользователей относительно своего релиза, спорить или игнорировать их, паниковать, удалять торрент-файл и заливать по-новый. Регистрируя новый торрент - Вы недочетов старого релиза не устраните! Поймите - у нас тут не мусорный ящик, где можно делать все, что душе угодно, а торрент-трекер, где существуют определенные правила оформления.
С Вами люди идут на контакт, предлагая помощь - Вы же делаете по-своему, полностью игнорируя их.
[Торрент-статистика]
[Профиль]  [ЛС] 
Показать сообщения:    
Ответить на тему

Текущее время: Сегодня 03:59

Часовой пояс: GMT + 4



Вы не можете начинать темы
Вы не можете отвечать на сообщения
Вы не можете редактировать свои сообщения
Вы не можете удалять свои сообщения
Вы не можете голосовать в опросах
Вы не можете прикреплять файлы к сообщениям
Вы не можете скачивать файлы