Грязь / Filth (Джон С. Бейрд / Jon S. Baird) [2013 г., драма, комедия, криминал, BDRip] AVO [Гоблин (Дмитрий Пучков)]

Ответить на тему
 
Автор
Сообщение

TiZAr ®

Пол:

Стаж: 4 года 2 месяца

Сообщений: 837

Репутация: 1160 [+] [-]

Откуда: Россия

Пост 05-Фев-2014 04:27

[Цитировать] 

Грязь / Filth
«This Little Piggy went to town!»
- Год выпуска: 2013
Страна: Великобритания
Жанр: драма, комедия, криминал
Продолжительность: 01:37:22
Перевод: Авторский (одноголосый закадровый) Дмитрий Пучков aka Гоблин [VoiceRipHQ]
Режиссер: Джон С. Бейрд / Jon S. Baird
Производство: Altitude Film Entertainment, Egoli Tossell Film AG, Entre Chien et Loup, Film i Väst, Filmgate Films, Logie Pictures, Maven Pictures, Steel Mill Pictures- -В ролях: Джеймс МакЭвой, Джейми Белл, Эдди Марсан, Джим Бродбент, Имоджен Путс, Шона МакДональд, Ширли Хендерсон, Джон Сессионс, Гари Льюис, Иман Эллиотт и др.
Описание:
Главный герой — продажный шотландский полицейский Брюс Робертсон, помешанный на сексе и кокаине. Ему бы надо расследовать убийство, но ему сильно мешают собственные странности, привычка разыгрывать коллег и беготня за девушками. За Робертсоном присматривают его напарник Рэй Леннокс и начальник Боб Тоал.
О релизе: Видео - HQClub, запись звука - dracula2flash, чистка - Slim9174, синхронизация и сборка дороги 5.1 - danis92
Качество: BDRip | Сэмпл
Формат: AVI
Видео: 720x304, 24 fps, XviD build 65 ~1742 kbps avg, 0.33 bit/pixel
Аудио: 48 kHz, AC3 Dolby Digital, 3/2 (L,C,R,l,r) + LFE ch, ~384 kbps avg

MI

Код:
General
Complete name                            : Filth.2013.BDRip.AVO.Goblin.avi
Format                                   : AVI
Format/Info                              : Audio Video Interleave
File size                                : 1.45 GiB
Duration                                 : 1h 37mn
Overall bit rate                         : 2 135 Kbps
Movie name                               : Грязь / Filth (2013) BDRip
Director                                 : Slim9174 & danis92
Writing application                      : VirtualDubMod 1.5.10.3 (build 2550/release)
Writing library                          : VirtualDubMod build 2550/release
Video
ID                                       : 0
Format                                   : MPEG-4 Visual
Format profile                           : Advanced Simple@L5
Format settings, BVOP                    : 1
Format settings, QPel                    : No
Format settings, GMC                     : No warppoints
Format settings, Matrix                  : Custom
Codec ID                                 : XVID
Codec ID/Hint                            : XviD
Duration                                 : 1h 37mn
Bit rate                                 : 1 742 Kbps
Width                                    : 720 pixels
Height                                   : 304 pixels
Display aspect ratio                     : 2.35:1
Frame rate                               : 24.000 fps
Color space                              : YUV
Chroma subsampling                       : 4:2:0
Bit depth                                : 8 bits
Scan type                                : Progressive
Compression mode                         : Lossy
Bits/(Pixel*Frame)                       : 0.332
Stream size                              : 1.18 GiB (82%)
Writing library                          : XviD 65
Audio
ID                                       : 1
Format                                   : AC-3
Format/Info                              : Audio Coding 3
Mode extension                           : CM (complete main)
Format settings, Endianness              : Big
Codec ID                                 : 2000
Duration                                 : 1h 37mn
Bit rate mode                            : Constant
Bit rate                                 : 384 Kbps
Channel count                            : 6 channels
Channel positions                        : Front: L C R, Side: L R, LFE
Sampling rate                            : 48.0 KHz
Bit depth                                : 16 bits
Compression mode                         : Lossy
Stream size                              : 267 MiB (18%)
Alignment                                : Split accross interleaves
Interleave, duration                     : 42 ms (1.00 video frame)
Interleave, preload duration             : 500 ms

Скриншоты



Об аудиодороге Гоблина

Внимание!Звуковая дороги качества VoiceRipHQ, запись голоса записанного на диктофон на спец. показе в кинотеатре. Релиз исключительно для истинных ценителей переводов Гоблина. Других релизов с переводом Гоблина х/ф "Грязь" может и не быть! Прежде чем качать релиз - внимательно слушаем сэмпл! Ценителям качественного звука КАЧАТЬ СТРОГО НЕ РЕКОММЕНДУЕТСЯ! Если вы скачали не то, что ожидали - это значит вы не изучили описание!

_________________
Не стоит обращать внимания на отсутствие сидов на моих раздачах. Все мои релизы мультитрекерные - нет сидов, включите DHT.
За релизами в HD качестве обращайтесь в личку, либо отписывайтесь в теме.
[Торрент-статистика]
[Профиль]  [ЛС] 
Показать сообщения:    
Ответить на тему

Текущее время: Сегодня 03:58

Часовой пояс: GMT + 4



Вы не можете начинать темы
Вы не можете отвечать на сообщения
Вы не можете редактировать свои сообщения
Вы не можете удалять свои сообщения
Вы не можете голосовать в опросах
Вы не можете прикреплять файлы к сообщениям
Вы не можете скачивать файлы