Сокровища О.К. (Дмитрий Коробкин) [2013 г., приключения, комедия, BDRip] [Лицензия]

Ответить на тему
 
Автор
Сообщение

TiZAr ®

Пол:

Стаж: 3 года 3 месяца

Сообщений: 836

Репутация: 1157 [+] [-]

Откуда: Россия

Пост 28-Ноя-2013 03:16

[Цитировать] 

Сокровища О.К.
«Нет времени объяснять»
- Год выпуска: 2013
Страна: Россия
Жанр: приключения, комедия
Продолжительность: 01:44:00
Режиссер: Дмитрий Коробкин- -В ролях:
Алексей Воробьев, Эльвира Ибрагимова, Байбулат Батуллин, Мария Кожевникова, Сергей Шакуров, Виктор Вержбицкий, Гоша Куценко, Светлана Чуйкина, Денис Ясик, Сергей Никоненко и др.
Описание:
Во время осады Казани Иваном Грозным прекрасная ханша Сююмбике приказывает спрятать несметные богатства в озере Кабан. И вот уже 500 лет судьба клада неизвестна…
В наши дни тайна сокровищ открывается обаятельному ловеласу Кириллу, и он устремляется на поиски заветного клада. На пути к богатствам Кирилл знакомится с неприступной красавицей Гулей, которая совершенно не собирается попадать под влияние чар авантюриста. Но совместные похождения и постоянно преследующая опасность заставляют молодых людей иначе посмотреть друг на друга. И неужели только сокровища могут стать главной наградой за опасные приключения?!

Доп. информация:

Сценарий: Георгий Кирвалидзе, Дмитрий Терехов, Андрей Николаев, Милана Забелло, Вадим Быркин
Продюсер: Олег Сурков, Вадим Быркин, Андрей Николаев, Екатерина Урманчеева, Милана Забелло
Оператор: Дмитрий Коробкин
Композитор: Руслан Муратов, Антон Новосельцев, Алексей Воробьев

Бюджет: $6 000 000
Сборы в России: $1 431 461
Мировая премьера: 3 мая 2013
Релиз на DVD: 21 ноября 2013, «CP Дистрибуция»
Релиз на Blu-ray: 21 ноября 2013, «CP Дистрибуция»
Тип релиза: BDRip | Сэмпл
Контейнер: AVI
Видео кодек: XviD
Аудио кодек: AC3 (Dolby Digital)
Видео: MPEG4, XviD, 720x400 (16:9), 25.000 fps, 1 554 Kbps (0.216 bit/pixel)
Аудио: AC-3, 48.0 KHz, 6 ch, 448 Kbps, CBR

Знаете ли Вы, что...

  • Подводные декорации были выстроены на озере близ села Скалистое в Крыму.
  • По сюжету фильма на сцене Татарского академического театра им. Галискара Камала идет спектакль на русском языке. В реальности весь репертуар театра состоит из спектаклей на татарском языке.
-

MI

Код:
General
Complete name                            : E:\downloads\Sokrovischa_OK_.2013.O_BDRip.avi
Format                                   : AVI
Format/Info                              : Audio Video Interleave
File size                                : 1.46 GiB
Duration                                 : 1h 44mn
Overall bit rate                         : 2 012 Kbps
Writing application                      : VirtualDubMod 1.5.10.3 (build 2550/release)
Writing library                          : VirtualDubMod build 2550/release
Video
ID                                       : 0
Format                                   : MPEG-4 Visual
Format profile                           : Advanced Simple@L5
Format settings, BVOP                    : 2
Format settings, QPel                    : No
Format settings, GMC                     : No warppoints
Format settings, Matrix                  : Custom
Codec ID                                 : XVID
Codec ID/Hint                            : XviD
Duration                                 : 1h 44mn
Bit rate                                 : 1 554 Kbps
Width                                    : 720 pixels
Height                                   : 400 pixels
Display aspect ratio                     : 16:9
Frame rate                               : 25.000 fps
Color space                              : YUV
Chroma subsampling                       : 4:2:0
Bit depth                                : 8 bits
Scan type                                : Progressive
Compression mode                         : Lossy
Bits/(Pixel*Frame)                       : 0.216
Stream size                              : 1.13 GiB (77%)
Writing library                          : XviD 1.2.1 (UTC 2008-12-04)
Audio
ID                                       : 1
Format                                   : AC-3
Format/Info                              : Audio Coding 3
Mode extension                           : CM (complete main)
Format settings, Endianness              : Big
Codec ID                                 : 2000
Duration                                 : 1h 44mn
Bit rate mode                            : Constant
Bit rate                                 : 448 Kbps
Channel count                            : 6 channels
Channel positions                        : Front: L C R, Side: L R, LFE
Sampling rate                            : 48.0 KHz
Bit depth                                : 16 bits
Compression mode                         : Lossy
Stream size                              : 333 MiB (22%)
Alignment                                : Split accross interleaves
Interleave, duration                     : 40 ms (1.00 video frame)
Interleave, preload duration             : 500 ms

Скриншоты


_________________
Не стоит обращать внимания на отсутствие сидов на моих раздачах. Все мои релизы мультитрекерные - нет сидов, включите DHT.
За релизами в HD качестве обращайтесь в личку, либо отписывайтесь в теме.
[Торрент-статистика]
[Профиль]  [ЛС] 
Показать сообщения:    
Ответить на тему

Текущее время: Сегодня 00:29

Часовой пояс: GMT + 4



Вы не можете начинать темы
Вы не можете отвечать на сообщения
Вы не можете редактировать свои сообщения
Вы не можете удалять свои сообщения
Вы не можете голосовать в опросах
Вы не можете прикреплять файлы к сообщениям
Вы не можете скачивать файлы