Моя фамилия Шилов (Андрей Элинсон) [2013, Россия, Криминал, боевик, WEB-DLRip]

Ответить на тему
 
Автор
Сообщение

awk05 ®

Пол:

Стаж: 4 года 5 месяцев

Сообщений: 1352

Репутация: 275 [+] [-]

Откуда: Западная Украина Ривне

Пост 12-Окт-2013 02:49

[Цитировать] 

--Моя фамилия Шилов-- Год выпуска: 2013
Производство: Россия, кинокомпания "Панорама", "Форвард-Фильм"
Жанр: Криминал, боевик
Перевод: Не требуется (русский)
Субтитры: Отсутствуют--Дата российской премьеры: 11 октября 2013--Режиссер: Андрей Элинсон--Актеры: Александр Устюгов, Константин Стрельников, Всеволод Цурило, Сергей Перегудов, Светлана Смирнова-Кацагаджиева, Мария Синяева, Геннадий Алимпиев, Алексей Федотов, Влада Макейчик, Игорь Клочков, Юрий Орлов, Сергей Колос, Егор Закреничный, Виталий Исаков--Описание: Герои «Ментовских войн» Арнаутов в «Отдельное поручение » и Джексон в фильме «Просто Джексон (2012) » уже показали, на что они способны в самых сложных и рискованных ситуациях. На этот раз доказать свой высокий профессионализм и отвагу придется самому главному борцу с беззаконием – полковнику полиции Роману Шилову.
После увольнения из ГУВД Роман Шилов (Александр Устюгов) решает уделить время своей личной жизни. Но встрече с Максаковой (Светлана Смирнова), с которой он давно мечтал объясниться, мешает звонок от жены Михаила Краснова (Сергей Перегудов), показания которого когда-то помоги посадить за решётку опасного убийцу. Надя Краснова в слезах сообщает Шилову, что Михаила похитили неизвестные. Бросившись на выручку старого приятеля, Шилов попадает в криминальный водоворот, разрушивший спокойную жизнь провинциального городка, в котором Красновы владели автомастерской. Местный вор в законе по прозвищу Профессор ищет пропавший воровской «общак» и обвиняет в его исчезновении Краснова.--Качество: WEB-DLRip
Контейнер: AVI
Видео: XviD, 720x400 (16:9), 2 128 Kbps, 25.000 fps, 0,267 bpp
Аудио: AC3 / 2.0 / 48 kHz / 192 kbps--Сэмпл /Кинопоиск-- --

Доп. Информация

Сценарий: Максим Есаулов, Андрей Романов, Андрей Орлов
Продюсер: Ада Ставиская
Оператор: Владимир Лыков
Композитор: Максим Кошеваров

Media Info

Расположение: E:\СЕРИАЛЫ\Ментовские войны\Moya_familiya_Shilov_2013.avi
Имя файла: Moya_familiya_Shilov_2013.avi
Формат файла: .avi (AVI)
Размер файла: 1.37 GB
Длительность: 1h 31mn
Навигация по главам: Нет
Битрейт (все потоки): 2 128 Kbps
Создан при помощи: VirtualDubMod 1.5.10.3 | www.virtualdub-fr.org || (build 2550/release)
Использовалась библиотека: VirtualDubMod build 2550/release
Обложка: Отсутствует
Название: Moya_familiya_Shilov_2013
Тип потока: Видео
Длительность: 01:31:59
Кодек: MPEG-4 Visual
Кодек/профиль: Advanced Simple@L5
Кодек/ID: XVID
Размеры изображения: 720 x 400 (16:9)
Частота кадров: 25.000 fps
Размер потока: 1.18 GiB (87%)
Битрейт: 1 843 Kbps
Метод сжатия: Lossy
Библиотека кодирования: XviD 1.2.1 (UTC 2008-12-04)
Цветовое пространство: YUV
Тип развёртки: Progressive
Глубина: 8 bits
Тип потока: Звук #1
Длительность: 01:31:59.520
Кодек: AC-3
Кодек/описание: Audio Coding 3
Кодек/ID: 2000
Частота дискретизации: 48.0 KHz
Каналов: 2 channels
Битрейт: 192 Kbps
Битрейт/тип: Constant
Размер потока: 126 MiB (9%)
Глубина: 16 bits
Метод сжатия: Lossy

Скриншоты

«СЕЗОН 1-6» «СЕЗОН 7» «Эпилог» «Просто Джексон» «Отдельное поручение» «Моя фамилия Шилов»

_________________


Последний раз редактировалось: awk05 (2013-11-14 16:54), всего редактировалось 3 раз(а)
[Торрент-статистика]
[Профиль]  [ЛС] 

Chet

Пол:

Стаж: 5 лет 1 месяц

Сообщений: 1866

Репутация: 363 [+] [-]

Откуда: UA

Пост 12-Окт-2013 12:23 (спустя 9 часов)

[Цитировать] 


кто круче: Шилов или Карпов? ab
[Торрент-статистика]
[Профиль]  [ЛС] 

awk05 ®

Пол:

Стаж: 4 года 5 месяцев

Сообщений: 1352

Репутация: 275 [+] [-]

Откуда: Западная Украина Ривне

Пост 12-Окт-2013 12:47 (спустя 23 минуты)

[Цитировать] 

Шилов по своему, Карпов по своему они разные и методы работы у них разные.

_________________
[Торрент-статистика]
[Профиль]  [ЛС] 

awk05 ®

Пол:

Стаж: 4 года 5 месяцев

Сообщений: 1352

Репутация: 275 [+] [-]

Откуда: Западная Украина Ривне

Пост 14-Ноя-2013 16:56 (спустя 1 месяц 2 дня)

[Цитировать] 

замена Торрента на более качественный

_________________
[Торрент-статистика]
[Профиль]  [ЛС] 

DepressedHammer

Пол:

Стаж: 5 лет

Сообщений: 29

Репутация: 15 [+] [-]

Откуда: USSR

Пост 07-Фев-2015 11:40 (спустя 1 год 2 месяца)

[Цитировать] 

6 раз скачан, 106 внешних, а сидов 0. где же скорость?
[Торрент-статистика]
[Профиль]  [ЛС] 

Волк

Пол:

Стаж: 5 лет

Сообщений: 689

Репутация: 292 [+] [-]

Откуда: Армения

Пост 07-Фев-2015 21:32 (спустя 9 часов)

[Цитировать] 

DepressedHammer, Вы что во всех темах будете писать о скорости? Скорость нормальная почти во всех раздачах!!!
[Торрент-статистика]
[Профиль]  [ЛС] 

DepressedHammer

Пол:

Стаж: 5 лет

Сообщений: 29

Репутация: 15 [+] [-]

Откуда: USSR

Пост 12-Фев-2015 16:13 (спустя 4 дня)

[Цитировать] 

49551DepressedHammer, Вы что во всех темах будете писать о скорости? Скорость нормальная почти во всех раздачах!!!
Ни одного сида на этой раздаче нет. 106 внешних, которых клиент не видит. Где нормальная скорость?
[Торрент-статистика]
[Профиль]  [ЛС] 

Волк

Пол:

Стаж: 5 лет

Сообщений: 689

Репутация: 292 [+] [-]

Откуда: Армения

Пост 12-Фев-2015 20:30 (спустя 4 часа)

[Цитировать] 

DepressedHammer, Вы перекачайте торрент и раздача поидет!
[Торрент-статистика]
[Профиль]  [ЛС] 
Показать сообщения:    
Ответить на тему

Текущее время: Сегодня 15:36

Часовой пояс: GMT + 4



Вы не можете начинать темы
Вы не можете отвечать на сообщения
Вы не можете редактировать свои сообщения
Вы не можете удалять свои сообщения
Вы не можете голосовать в опросах
Вы не можете прикреплять файлы к сообщениям
Вы не можете скачивать файлы