Игра в правду (Виктор Шамиров) [2013 г., комедия, DVDRip] [Лицензия]

Ответить на тему
 
Автор
Сообщение

TiZAr ®

Пол:

Стаж: 3 года 3 месяца

Сообщений: 836

Репутация: 1157 [+] [-]

Откуда: Россия

Пост 25-Авг-2013 18:56

[Цитировать] 

Игра в правду
«Комедия для взрослых по-французски»
Год выпуска: 2013
Страна: Россия
Жанр: комедия
Продолжительность: 01:31:17
Режиссер: Виктор Шамиров
Производство: Базелевс Продакшн- -В ролях:
Ирина Апексимова, Константин Юшкевич, Дмитрий Марьянов, Гоша Куценко и др.
Описание:
Трое бывших однокурсников собираются на квартире поболтать под водочку и вспомнить юность. Разухабистый бизнесмен Марк порывается вызвонить девочек, но не находит поддержки у друзей: автодилер Геннадий скорее по привычке хранит верность жене, а хозяин квартиры — физик и неудачник Анатолий — подготовил для всех сюрприз. Он приглашает в гости звезду их курса Майю, в которую все трое были влюблены 20 лет назад. Разговор на четверых не клеится, пока не начинается предельно откровенная игра в правду. Друзья узнают друг о друге то, чего, возможно, предпочли бы не знать. Пройдут ли их отношения проверку правдой?
Релиз от:

Тип релиза: DVDRip | Сэмпл | Исходник: DVD9 R5
Контейнер: AVI
Видео кодек: XviD
Аудио кодек: AC3 (Dolby Digital)
Видео: 720x304 (2.35:1), 25.000 fps, XVID ~1731 kbps avg, 0.316 bit/pixel
Аудио: Русский, 48 kHz, AC3, 6 ch, 448.00 kbps Constant

MI

Код:
Общее
Полное имя                               : Igra.v.pravdu.2013.O.DVDRip_[Youtracker]_by_avproh.avi
Формат                                   : AVI
Формат/Информация                        : Audio Video Interleave
Размер файла                             : 1,40 Гбайт
Продолжительность                        : 1 ч. 31 м.
Общий поток                              : 2189 Кбит/сек
Программа кодирования                    : VirtualDubMod 1.5.10.3 | www.virtualdub-fr.org || (build 2550/release)
Библиотека кодирования                   : VirtualDubMod build 2550/release
Видео
Идентификатор                            : 0
Формат                                   : MPEG-4 Visual
Профиль формата                          : Advanced Simple@L5
Параметр BVOP формата                    : 1
Параметр QPel формата                    : Нет
Параметр GMC формата                     : Без точки перехода
Параметр матрицы формата                 : Выборочная
Идентификатор кодека                     : XVID
Идентификатор кодека/Подсказка           : XviD
Продолжительность                        : 1 ч. 31 м.
Битрейт                                  : 1731 Кбит/сек
Ширина                                   : 720 пикселей
Высота                                   : 304 пикселя
Соотношение сторон                       : 2,35:1
Частота кадров                           : 25,000 кадров/сек
Цветовое пространство                    : YUV
Субдискретизация насыщенности            : 4:2:0
Битовая глубина                          : 8 бит
Тип развёртки                            : Прогрессивная
Метод сжатия                             : С потерями
Бит/(Пиксели*Кадры)                      : 0.316
Размер потока                            : 1,10 Гбайт (79%)
Библиотека кодирования                   : XviD 65
Аудио
Идентификатор                            : 1
Формат                                   : AC-3
Формат/Информация                        : Audio Coding 3
Расширение режима                        : CM (complete main)
Параметр Endianness формата              : Big
Идентификатор кодека                     : 2000
Продолжительность                        : 1 ч. 31 м.
Вид битрейта                             : Постоянный
Битрейт                                  : 448 Кбит/сек
Каналы                                   : 6 каналов
Расположение каналов                     : Front: L C R, Side: L R, LFE
Частота                                  : 48,0 КГц
Битовая глубина                          : 16 бит
Метод сжатия                             : С потерями
Размер потока                            : 293 Мбайт (20%)
Выравнивание                             : Разделение по промежуткам
Продолжительность промежутка             : 40  мс. (1,00 видеокадр)
Время предзагрузки промежутка            : 500  мс.

Скриншоты


_________________
Не стоит обращать внимания на отсутствие сидов на моих раздачах. Все мои релизы мультитрекерные - нет сидов, включите DHT.
За релизами в HD качестве обращайтесь в личку, либо отписывайтесь в теме.


Последний раз редактировалось: TiZAr (2014-04-10 22:43), всего редактировалось 1 раз
[Торрент-статистика]
[Профиль]  [ЛС] 

TiZAr ®

Пол:

Стаж: 3 года 3 месяца

Сообщений: 836

Репутация: 1157 [+] [-]

Откуда: Россия

Пост 10-Апр-2014 22:22 (спустя 7 месяцев 16 дней)

[Цитировать] 

Перезалит на рип с лицензии.

_________________
Не стоит обращать внимания на отсутствие сидов на моих раздачах. Все мои релизы мультитрекерные - нет сидов, включите DHT.
За релизами в HD качестве обращайтесь в личку, либо отписывайтесь в теме.
[Торрент-статистика]
[Профиль]  [ЛС] 
Показать сообщения:    
Ответить на тему

Текущее время: Сегодня 00:15

Часовой пояс: GMT + 4



Вы не можете начинать темы
Вы не можете отвечать на сообщения
Вы не можете редактировать свои сообщения
Вы не можете удалять свои сообщения
Вы не можете голосовать в опросах
Вы не можете прикреплять файлы к сообщениям
Вы не можете скачивать файлы