Чистилище (Александр Невзоров) [1997 г., боевик, драма, военный, DVDRip] [Лицензия]

Ответить на тему
 
Автор
Сообщение

Хоттабыч ®

Стаж: 3 года 4 месяца

Сообщений: 30

Репутация: 20 [+] [-]

Пост 13-Авг-2013 00:05

[Цитировать] 

Чистилище
Год выпуска: 1997
Страна: Россия
Жанр: боевик, драма, военный
Продолжительность: 01:54:44
Режиссер: Александр Невзоров
В ролях: Виктор Степанов, Дмитрий Нагиев, Вячеслав Бурлачко, Александр Баранов, Владимир Рымига, Роман Жилкин, Ирина Веселина, Виктория Матвеева, Сергей Рост, Георгий Антонов
Описание: В центре сюжета этой военной драмы бои за больничный комплекс в Грозном, занятый российскими солдатами во главе с раненым полковником, потерявшим глаз. Между ним и командиром подразделения армии Ичкерии ведется диалог в эфире. Все экранное время занимают интенсивные боевые действия, снятые в полудокументальной, натуралистической манере.
Доп. информация:
• Российская премьера: 23 марта 1998
Семпл: http://multi-up.com/718276
Тип релиза: DVDRip
Контейнер: AVI
Видео кодек: XviD
Аудио кодек: AC3 (Dolby Digital)
Видео: XviD, 720x400, 1377 kbps
Аудио: русский, дублированный (лицензия), AC3 2.0, 320 kbps

MediaInfo

General
Complete name : F:\Фильмы\Чистилище.1998.DVDRip.avi
Format : AVI
Format/Info : Audio Video Interleave
File size : 1.37 GiB
Duration : 1h 54mn
Overall bit rate : 1 706 Kbps
Writing application : VirtualDubMod 1.5.4.1 (build 2178/release)
Writing library : VirtualDubMod build 2178/release
Video
ID : 0
Format : MPEG-4 Visual
Format profile : Streaming Video@L1
Format settings, BVOP : Yes
Format settings, QPel : No
Format settings, GMC : No warppoints
Format settings, Matrix : Custom
Codec ID : XVID
Codec ID/Hint : XviD
Duration : 1h 54mn
Bit rate : 1 378 Kbps
Width : 720 pixels
Height : 400 pixels
Display aspect ratio : 16/9
Frame rate : 29.970 fps
Resolution : 24 bits
Colorimetry : 4:2:0
Scan type : Progressive
Bits/(Pixel*Frame) : 0.160
Stream size : 1.10 GiB (81%)
Writing library : XviD 1.2.0.dev47 (UTC 2006-11-01)
Audio
ID : 1
Format : AC-3
Format/Info : Audio Coding 3
Codec ID : 2000
Duration : 1h 54mn
Bit rate mode : Constant
Bit rate : 320 Kbps
Channel(s) : 2 channels
Channel positions : L R
Sampling rate : 48.0 KHz
Stream size : 263 MiB (19%)
Alignment : Split accross interleaves
Interleave, duration : 96 ms (2.88 video frames)
Interleave, preload duration : 96 ms
Language : Russian

Скриншоты


Для увеличения картинки щелкните мышкой по превью
[Торрент-статистика]
[Профиль]  [ЛС] 

alexbild

Пол:

Стаж: 4 года 10 месяцев

Сообщений: 16

Репутация: 5 [+] [-]

Пост 13-Авг-2013 21:40 (спустя 21 час)

[Цитировать] 

Когда-то (примерно в 1996-м году) добирался автостопом из Днепропетровска в Харьков. Меня подвозил дядька на 99-й с российскими номерами. В пути остановились на отдых, он представился "телохранителем Невзорова", говорил, что как раз сейчас фильм отсняли - "Чистилище" - показывал фотки-фрагменты из него (он там тоже кого-то играл в эпизодах).
Больше я про этот фильм ни разу до вчерашнего дня не слышал, хотя было интересно, но специально не искал - забыл.
Сейчас скачаю обязательно, спасибо!
[Торрент-статистика]
[Профиль]  [ЛС] 

Волк

Пол:

Стаж: 5 лет 1 месяц

Сообщений: 689

Репутация: 292 [+] [-]

Откуда: Армения

Пост 13-Авг-2013 23:15 (спустя 1 час 34 минуты)

[Цитировать] 

alexbild, Надеюсь нервы у вас крепкие!!!Фильм не для слабых нерв.
[Торрент-статистика]
[Профиль]  [ЛС] 

ArtZak

Пол:

Стаж: 5 лет 1 месяц

Сообщений: 3008

Репутация: 1363 [+] [-]

Откуда: Россия

Пост 13-Авг-2013 23:18 (спустя 3 минуты)

[Цитировать] 

32815Надеюсь нервы у вас крепкие!!!Фильм не для слабых нерв.
Полностью согласен! Когда первый раз смотрел - ночью кошмары снились... Как помню - съемка вроде осуществлена "типа" любительской камерой без всяких фильтров и прочей Голливудовской фигни для спецэффектов...
[Торрент-статистика]
[Профиль]  [ЛС] 

nova1980

Пол:

Стаж: 5 лет

Сообщений: 820

Репутация: 523 [+] [-]

Откуда: Одесса Мама

Пост 13-Авг-2013 23:40 (спустя 21 минута)

[Цитировать] 

32815alexbild, Надеюсь нервы у вас крепкие!!!Фильм не для слабых нерв.
Это точно! Смотрел давно, но впечатления до сих пор остались! Запомнилось много моментов, но самый самый это про снайперов! Ни когда не получал удовольствие, когда кто то стреляет в человека, до этого фильма!

_________________
Мои Раздачи
[Торрент-статистика]
[Профиль]  [ЛС] 

alexbild

Пол:

Стаж: 4 года 10 месяцев

Сообщений: 16

Репутация: 5 [+] [-]

Пост 14-Авг-2013 01:29 (спустя 1 час 49 минут)

[Цитировать] 

32815alexbild, Надеюсь нервы у вас крепкие!!!Фильм не для слабых нерв.
по показанным мне тогда фоткам-кадрам-из-фильма я имею примерное представление, насколько там все...
думаю, осилю
[Торрент-статистика]
[Профиль]  [ЛС] 

PathFounder

Пол:

Стаж: 4 года 7 месяцев

Сообщений: 9

Репутация: 1 [+] [-]

Откуда: CCCP

Пост 17-Авг-2013 00:34 (спустя 2 дня 23 часа)

[Цитировать] 

Волк,
alexbild, Надеюсь нервы у вас крепкие!!!Фильм не для слабых нерв
поломал мне моск
bu
[Торрент-статистика]
[Профиль]  [ЛС] 

alexbild

Пол:

Стаж: 4 года 10 месяцев

Сообщений: 16

Репутация: 5 [+] [-]

Пост 22-Сен-2013 13:55 (спустя 1 месяц 5 дней)

[Цитировать] 

32952
Волк,
alexbild, Надеюсь нервы у вас крепкие!!!Фильм не для слабых нерв
поломал мне моск
bu
А я нынче литературным редактором работаю, мой мозг приобрел иммунитет к любым словосочетаним.
[Торрент-статистика]
[Профиль]  [ЛС] 

aleks

Пол:

Стаж: 5 лет 1 месяц

Сообщений: 385

Репутация: 144 [+] [-]

Пост 21-Сен-2014 09:12 (спустя 11 месяцев)

[Цитировать] 

http://brodim.com/viewtopic.php?t=13369
[Торрент-статистика]
[Профиль]  [ЛС] 
Показать сообщения:    
Ответить на тему

Текущее время: Сегодня 22:10

Часовой пояс: GMT + 4



Вы не можете начинать темы
Вы не можете отвечать на сообщения
Вы не можете редактировать свои сообщения
Вы не можете удалять свои сообщения
Вы не можете голосовать в опросах
Вы не можете прикреплять файлы к сообщениям
Вы не можете скачивать файлы