Громозека (драма, 2011) Драма, DVDRip

Ответить на тему
 
Автор
Сообщение

NeliyZar ®

Пол:

Стаж: 5 лет 1 месяц

Сообщений: 3378

Репутация: 687 [+] [-]

Откуда: Донбасс

Пост 29-Ноя-2011 01:06

[Цитировать] 

Громозека (2011) DVDRip
Русское название: Громозека
Год выпуска: 2011
Производство: Россия, TVINDIE Film Production
Жанр: Драма
Перевод: Оригинальный
Субтитры: Отсутствуют

Дата мировой премьеры: 31 января 2011
Дата российской премьеры: 23 июня 2011, «P&I Films»
Дата выхода DVD релиза: 14 июля 2011, «Новый Диск»
Продолжительность: 01:43:30
Режиссер: Владимир Котт
Продюсер: Евгений Гиндилис, Юлия Шагинурова
Актеры: Николай Добрынин, Борис Каморзин, Леонид Громов, Евгения Добровольская, Полина Филоненко, Дарья Семенова, Ольга Онищенко, Донатас Грудович, Тимофей Трибунцев, Андрей Лебедев и др.
Описание фильма:
Милиционер Громов, врач Каминский и таксист Мозеров — одноклассники. Когда-то они вместе играли в школьном ансамбле «ГРОМОЗЕКА», были любимцами школьников и грозой учителей. Теперь им около сорока, и с каждым жизнь обошлась по-своему жестко: у одного погиб маленький пациент, другому изменяет жена, дочь третьего снимается в порнофильмах. Их пути не пересекаются. Но на вечере выпускников участники «ГРОМОЗЕКИ» снова собираются вместе, чтобы исполнить хиты восьмидесятых…
Качество видео: DVDRip
Видеокодек: Xvid
Аудиокодек: AC3 5.1
Битрейт видео:
Видео: 720 x 400 ~1434 kbps 25.000 fps 448 kbps, 48,0 KHz
Размер кадра: 720 x 400 ~1434 kbps 25.000 fps
Аудио: AC3, 6 ch, 48 kHz, ~ 448 kbps avg

MediaInfo

Громозека (2011) DVDRip\Gromozeka.2011.O.DVDRip.avi
General
Complete name : Громозека (2011) DVDRip\Gromozeka.2011.O.DVDRip.avi
Format : AVI
Format/Info : Audio Video Interleave
File size : 1.37 GiB
Duration : 1h 43mn
Overall bit rate : 1 891 Kbps
Movie name : Gromozeka.2011.O.DVDRip
Director : ELEKTRO-Am
Genre : Drama
Writing application : VirtualDubMod 1.5.10.2 (build 2540/release)
Original source form/Name : Movie
Copyright : ELEKTRI4KA
Video #0
ID : 0
Format : MPEG-4 Visual
Format profile : Advanced Simple@L5
Format settings, BVOP : 2
Format settings, QPel : No
Format settings, GMC : No warppoints
Format settings, Matrix : Custom
Codec ID : XVID
Codec ID/Hint : XviD
Duration : 1h 43mn
Bit rate : 1 434 Kbps
Width : 720 pixels
Height : 400 pixels
Display aspect ratio : 16:9
Frame rate : 25.000 fps
Color space : YUV
Chroma subsampling : 4:2:0
Bit depth : 8 bits
Scan type : Progressive
Compression mode : Lossy
Bits/(Pixel*Frame) : 0.199
Stream size : 1.04 GiB (76%)
Writing library : XviD 1.2.0.dev47 (UTC 2006-11-01)
Audio #1
ID : 1
Format : AC-3
Format/Info : Audio Coding 3
Mode extension : CM (complete main)
Codec ID : 2000
Duration : 1h 43mn
Bit rate mode : Constant
Bit rate : 448 Kbps
Channel(s) : 6 channels
Channel positions : Front: L C R, Side: L R, LFE
Sampling rate : 48.0 KHz
Bit depth : 16 bits
Compression mode : Lossy
Stream size : 332 MiB (24%)
Alignment : Split accross interleaves
Interleave, duration : 40 ms (1.00 video frame)
Interleave, preload duration : 500 ms

Скриншоты:






_________________
Спорить с женщиной не так тяжело, когда понимаешь, что это бесполезно... (Михаил Мамчич)
Исправили раздачу? Отпишитесь модератору в ЛС с ссылкой на релиз.
[Торрент-статистика]
[Профиль]  [ЛС] 
Показать сообщения:    
Ответить на тему

Текущее время: Сегодня 12:12

Часовой пояс: GMT + 4



Вы не можете начинать темы
Вы не можете отвечать на сообщения
Вы не можете редактировать свои сообщения
Вы не можете удалять свои сообщения
Вы не можете голосовать в опросах
Вы не можете прикреплять файлы к сообщениям
Вы не можете скачивать файлы