Вдребезги, Комедия, 2011, Комедия, DVDRip

Ответить на тему
 
Автор
Сообщение

NeliyZar ®

Пол:

Стаж: 5 лет 1 месяц

Сообщений: 3378

Репутация: 687 [+] [-]

Откуда: Донбасс

Пост 28-Ноя-2011 03:38

[Цитировать] 

Вдребезги (2011) DVDRip
«Судьба расставит все точки над Ё»
Русское название: Вдребезги
Год выпуска: 2011
Производство: Россия
Жанр: Комедия- -Дата российской премьеры: 6 октября 2011 года, «Парадиз»
Дата выхода DVD релиза: 8 ноября 2011 года, «Парадиз Видео»-Режиссер: Роман Каримов
Сценарий: Роман Каримов
Продюсеры: Геворг Нерсисян, Армен Адилханян, Михаил Кукушкин
Актеры: Никита Дювбанов, Артем Ткаченко, Равшана Куркова, Иван Николаев, Александр Плющев, Александр Дульщиков, Кристина Казурова, Евгения Абрамова, Павел Дикан, Тимур Крючков-Описание фильма:
Что делать с людьми, которые нам так мешают в нашей жизни? Может их убить? А можем ли мы убить? А кто может убить?
…Две девушки-маньячки сбивают велосипедиста, убивают педофила, угоняют машину у гламурного подонка…
…Известный ди-джей ведет скандальное шоу, где прикалывается над слушателями. После очередного эфира ди-джея похищают…
… Жена, мечтающая порвать с мужем, приглашает на день рождения босса-любовника. Пока она ходила за сигаретами, в доме происходит убийство… Пути героев этих историй, составляющих абсурдно-жестокую черную комедию, пересекаются на загородном шоссе, когда судьба сама расставляет все точки над Ё.-Продолжительность: 01:29:15
Качество видео: DVDRip
Видеокодек: MPEG-4 AVC/H.264
Битрейт видео: ~1939 Kb/ps, 25 fps, 0.240 bit/pixel
Размер кадра: 720х448@1044х448, (2.35:1)
Аудиокодек: AC3 5.1
Битрейт аудио: 384 Kb/ps, 6 ch, 48 kHz-

MediaInfo

General
Unique ID : 249624131531710815700180565938982845007 (0xBBCBDBE5D7821A5D98BD0321BE6B7A4F)
Complete name : D:\Vdrebezgi 2011.mkv
Format : Matroska
Format version : Version 2
File size : 1.45 GiB
Duration : 1h 29mn
Overall bit rate : 2 324 Kbps
Encoded date : UTC 2011-11-07 11:13:37
Writing application : mkvmerge v4.9.1 ('Ich will') сборка от Jul 11 2011 23:53:15
Writing library : libebml v1.2.1 + libmatroska v1.1.1
Video
ID : 1
Format : AVC
Format/Info : Advanced Video Codec
Format profile : High@L4.1
Format settings, CABAC : Yes
Format settings, ReFrames : 4 frames
Muxing mode : Header stripping
Codec ID : V_MPEG4/ISO/AVC
Duration : 1h 29mn
Bit rate : 1 939 Kbps
Width : 720 pixels
Height : 448 pixels
Display aspect ratio : 2.35:1
Frame rate : 25.000 fps
Color space : YUV
Chroma subsampling : 4:2:0
Bit depth : 8 bits
Scan type : Progressive
Bits/(Pixel*Frame) : 0.240
Stream size : 1.18 GiB (81%)
Writing library : x264 core 116 r2074 2641b9e
Encoding settings : cabac=1 / ref=4 / deblock=1:-1:-1 / analyse=0x3:0x113 / me=umh / subme=7 / psy=1 / psy_rd=1.00:0.00 / mixed_ref=1 / me_range=16 / chroma_me=1 / trellis=2 / 8x8dct=1 / cqm=0 / deadzone=21,11 / fast_pskip=1 / chroma_qp_offset=-2 / threads=3 / sliced_threads=0 / nr=0 / decimate=1 / interlaced=0 / bluray_compat=0 / constrained_intra=0 / bframes=3 / b_pyramid=0 / b_adapt=2 / b_bias=0 / direct=3 / weightb=1 / open_gop=0 / weightp=2 / keyint=250 / keyint_min=25 / scenecut=40 / intra_refresh=0 / rc_lookahead=40 / rc=2pass / mbtree=1 / bitrate=1939 / ratetol=1.0 / qcomp=0.60 / qpmin=10 / qpmax=51 / qpstep=4 / cplxblur=20.0 / qblur=0.5 / vbv_maxrate=50000 / vbv_bufsize=50000 / nal_hrd=none / ip_ratio=1.40 / aq=1:1.00
Language : English
Audio
ID : 2
Format : AC-3
Format/Info : Audio Coding 3
Mode extension : CM (complete main)
Muxing mode : Header stripping
Codec ID : A_AC3
Duration : 1h 29mn
Bit rate mode : Constant
Bit rate : 384 Kbps
Channel(s) : 6 channels
Channel positions : Front: L C R, Side: L R, LFE
Sampling rate : 48.0 KHz
Bit depth : 16 bits
Compression mode : Lossy
Stream size : 245 MiB (17%)

Скриншоты:



_________________
Спорить с женщиной не так тяжело, когда понимаешь, что это бесполезно... (Михаил Мамчич)
Исправили раздачу? Отпишитесь модератору в ЛС с ссылкой на релиз.
[Торрент-статистика]
[Профиль]  [ЛС] 
Показать сообщения:    
Ответить на тему

Текущее время: Сегодня 01:48

Часовой пояс: GMT + 4



Вы не можете начинать темы
Вы не можете отвечать на сообщения
Вы не можете редактировать свои сообщения
Вы не можете удалять свои сообщения
Вы не можете голосовать в опросах
Вы не можете прикреплять файлы к сообщениям
Вы не можете скачивать файлы