Вождь разнокожих (Егор Анашкин) [2012, комедия, семейный, HQRip] Лицензия

Ответить на тему
 
Автор
Сообщение

diim ®

Пол:

Стаж: 1 год 10 месяцев

Сообщений: 1033

Репутация: 112 [+] [-]

Пост 18-Окт-2012 01:46

[Цитировать] 

Вождь разнокожихГод выпуска: 2012
Страна: Россия
Жанр: комедия, семейный
Продолжительность: 01:29:56
Перевод: Не требуется (Лицензия)-Режиссер: Егор Анашкин
Сценарий: Игорь Сосна, Дмитрий Зверьков
Продюсер: Илья Неретин, Тимофей Сергейцев, Дмитрий Куликов
Композитор: Дмитрий Носков
В ролях: Дмитрий Дюжев, Мария Миронова, Григорий Сиятвинда, Игорь Ванюшкин, Семен Стругачев, Александр Числов, Виталий Гребенников, Владимир Епископосян, Виталий Кулаков, Никита Иванов, Эдуард Арушанян-Сборы в России: $106 291-Мировая премьера: 30 августа 2012
Релиз на DVD: 11 октября 2012, «CD Land»
Релиз на Blu-ray: 18 октября 2012, «CD Land»-Описание: История малолетнего злого гения как нельзя точно ложится на современные, в частности, российские реалии. Это рассказ не только о разрушительной силе детских шалостей, но также и о природе их возникновения. Будущий фильм - не просто развлекательная картина. На экране - проблемы отношений нынешних детей и взрослых.
Это история большого современного мегаполиса, вечно занятых родителей, у которых дети предоставлены, по большей части, общению с современными техническими средствами, но практически лишены эмоционального контакта как с родителями, так и со сверстниками. Наша цель сделать увлекательный и весёлый фильм, понятный и близкий зрителям всех возрастов, сочетающий лучшие традиции детской и семейной комедии.
- User Rating: 4.228 (233)- User Rating: 4.50 (12)-
Качество: HQRip
Формат: AVI
Видео: XviD; 720x384 (1.875); 1865 Kbps; 25 fps; 0,270 bit/pixel
Аудио: AC3; 448 Kbps; CBR; 6 ch-

mediainfo

D:КиноVozhd.raznokozhih.2012.O.HDRip.1400.avi
General
Complete name : D:КиноVozhd.raznokozhih.2012.O.HDRip.1400.avi
Format : AVI
Format/Info : Audio Video Interleave
File size : 1.46 GiB
Duration : 1h 29mn
Overall bit rate : 2 323 Kbps
Movie name : Vozhd.raznokozhih.2012.O.HDRip.IRONCLUB
Director : http://ironclub.tv/
Genre : Comedy/Family
Writing application : VirtualDubMod 1.5.10.2 (build 2540/release)
Video #0
ID : 0
Format : MPEG-4 Visual
Format profile : Advanced Simple@L5
Format settings, BVOP : Yes
Format settings, QPel : No
Format settings, GMC : No warppoints
Format settings, Matrix : Custom
Codec ID : XVID
Codec ID/Hint : XviD
Duration : 1h 29mn
Bit rate : 1 866 Kbps
Width : 720 pixels
Height : 384 pixels
Display aspect ratio : 1.875
Frame rate : 25.000 fps
Color space : YUV
Chroma subsampling : 4:2:0
Bit depth : 8 bits
Scan type : Progressive
Compression mode : Lossy
Bits/(Pixel*Frame) : 0.270
Stream size : 1.17 GiB (80%)
Writing library : XviD 1.2.1 (UTC 2008-12-04)
Audio #1
ID : 1
Format : AC-3
Format/Info : Audio Coding 3
Mode extension : CM (complete main)
Codec ID : 2000
Duration : 1h 29mn
Bit rate mode : Constant
Bit rate : 448 Kbps
Channel(s) : 6 channels
Channel positions : Front: L C R, Side: L R, LFE
Sampling rate : 48.0 KHz
Bit depth : 16 bits
Compression mode : Lossy
Stream size : 288 MiB (19%)
Alignment : Split accross interleaves
Interleave, duration : 40 ms (1.00 video frame)
Interleave, preload duration : 500 ms

Скриншоты

[Торрент-статистика]
[Профиль]  [ЛС] 
Показать сообщения:    
Ответить на тему

Текущее время: Сегодня 00:21

Часовой пояс: GMT + 4



Вы не можете начинать темы
Вы не можете отвечать на сообщения
Вы не можете редактировать свои сообщения
Вы не можете удалять свои сообщения
Вы не можете голосовать в опросах
Вы не можете прикреплять файлы к сообщениям
Вы не можете скачивать файлы