Бумер (Петр Буслов) [2003, криминальная драма, DVDRip]

Ответить на тему
 
Автор
Сообщение

diim ®

Пол:

Стаж: 1 год 10 месяцев

Сообщений: 1033

Репутация: 112 [+] [-]

Пост 15-Фев-2012 04:14

[Цитировать] 

БумерЖанр: криминальная драма
Год выпуска: 2003
Продолжительность: 01:49:53 (00:51:35 + 00:58:18 - 2 части)
Режиссер: Петр Буслов
В ролях:
Владимир Вдовиченков
Андрей Мерзликин
Максим Коновалов
Сергей Горобченко
Яна Николаева
Людмила Полякова
Анастасия Сапожникова
Василий Седых
Евгений Крайнов
Алексей Зайцев
Описание: Никаких законов… Никаких правил… Никого не жалко… Никто не прав… И если мы пока еще не сталкивались с этим в жизни, это еще не значит, что этого не существует. Скорее это значит, что нам пока везло… По ночным улицам Москвы мчится черный BMW, уходящий от погони. Цепь роковых событий с разборками и стрельбой поставила четырех героев — четырех друзей, вне закона. В жизни без правил им нет пути назад, и черный «бумер» — мощный и надежный, уносит их все дальше от Москвы, в шальную и безжалостную глушь российских дорог… Никто из них не хотел убивать. Никто из них не хотел умирать. Но этот путь им придется пройти до конца. И верный «бумер», много дней бывший домом для четырех друзей, будет медленно остывать в занесенном снегом лесу. Есть дороги, которые лучше не выбирать…

Знаете ли вы, что...

  • Музыкальная тема фильма, одновременно является звуковым сигналом мобильного телефона одного из главных героев. После выхода фильма на экраны мелодия стала пользоваться огромной популярностью у владельцев сотовых телефонов.
  • Кинокомпания СТВ выпустила версию фильма Бумер с шуточным звукорядом под названием Антибумер. «Смешной перевод» фильма Бумер был сделан Дмитрием Пучковым , более известным под псевдонимом Гоблин.
  • По мотивам фильма компания Gaijin Entertainment разработала компьютерную игру «Бумер: Сорванные башни», выпущенную издательством 1С.
  • Некоторые эпизоды фильма снимались в Звенигороде.
  • Режиссёр Пётр Буслов играет бандита, «крышующего» автозаправку, который соглашается принять в оплату за бензин автомагнитолу.
Качество видео: DVDRip, исходник - DVD9
Формат видео: AVI
Видео: 704x384 (1.83:1), 25 fps, XviD build 64 ~1446 kbps avg, 0.21 bit/pixel
Аудио: 48 kHz, AC3 Dolby Digital, 6 ch, ~448.00 kbps avg
Сэмпл

MediaInfo

Общее
Полное имя : C:\Documents and Settings\Max\Мои документы\Films\Бумер_1.46\Бумер_1.46\Бумер_1.46_1c.avi
Формат : AVI
Формат/Информация : Audio Video Interleave
Размер файла : 702 Мбайт
Продолжительность : 51 м.
Общий поток : 1904 Кбит/сек
Программа кодирования : VirtualDubModRus 1.5.10.2 (build 2540/release)
Библиотека кодирования : VirtualDubMod build 2540/release
Видео
Идентификатор : 0
Формат : MPEG-4 Visual
Профиль формата : Advanced Simple@L5
Параметр BVOP формата : 1
Параметр QPel формата : Нет
Параметр GMC формата : Без точки перехода
Параметр матрицы формата : Выборочная
Идентификатор кодека : XVID
Идентификатор кодека/Подсказка : XviD
Продолжительность : 51 м.
Битрейт : 1446 Кбит/сек
Ширина : 704 пикселя
Высота : 384 пикселя
Соотношение сторон : 16:9
Частота кадров : 25,000 кадров/сек
Цветовое пространство : YUV
Субдискретизация насыщенности : 4:2:0
Битовая глубина : 8 бит
Тип развёртки : Прогрессивная
Метод сжатия : С потерями
Бит/(Пиксели*Кадры) : 0.214
Размер потока : 534 Мбайт (76%)
Библиотека кодирования : XviD 64
Аудио
Идентификатор : 1
Формат : AC-3
Формат/Информация : Audio Coding 3
Расширение режима : CM (complete main)
Идентификатор кодека : 2000
Продолжительность : 51 м.
Вид битрейта : Постоянный
Битрейт : 448 Кбит/сек
Каналы : 6 каналов
Расположение каналов : Front: L C R, Side: L R, LFE
Частота : 48,0 КГц
Битовая глубина : 16 бит
Метод сжатия : С потерями
Задержка видео : 9 с. 257 мс.
Размер потока : 165 Мбайт (24%)
Выравнивание : Разделение по промежуткам
Продолжительность промежутка : 40 мс. (1,00 видеокадр)
Время предзагрузки промежутка : 500 мс.
Общее
Полное имя : C:\Documents and Settings\Max\Мои документы\Films\Бумер_1.46\Бумер_1.46\Бумер_1.46_2c.avi
Формат : AVI
Формат/Информация : Audio Video Interleave
Размер файла : 794 Мбайт
Продолжительность : 58 м.
Общий поток : 1903 Кбит/сек
Программа кодирования : VirtualDubModRus 1.5.10.2 (build 2540/release)
Библиотека кодирования : VirtualDubMod build 2540/release
Видео
Идентификатор : 0
Формат : MPEG-4 Visual
Профиль формата : Advanced Simple@L5
Параметр BVOP формата : 1
Параметр QPel формата : Нет
Параметр GMC формата : Без точки перехода
Параметр матрицы формата : Выборочная
Идентификатор кодека : XVID
Идентификатор кодека/Подсказка : XviD
Продолжительность : 58 м.
Битрейт : 1445 Кбит/сек
Ширина : 704 пикселя
Высота : 384 пикселя
Соотношение сторон : 16:9
Частота кадров : 25,000 кадров/сек
Цветовое пространство : YUV
Субдискретизация насыщенности : 4:2:0
Битовая глубина : 8 бит
Тип развёртки : Прогрессивная
Метод сжатия : С потерями
Бит/(Пиксели*Кадры) : 0.214
Размер потока : 603 Мбайт (76%)
Библиотека кодирования : XviD 64
Аудио
Идентификатор : 1
Формат : AC-3
Формат/Информация : Audio Coding 3
Расширение режима : CM (complete main)
Идентификатор кодека : 2000
Продолжительность : 58 м.
Вид битрейта : Постоянный
Битрейт : 448 Кбит/сек
Каналы : 6 каналов
Расположение каналов : Front: L C R, Side: L R, LFE
Частота : 48,0 КГц
Битовая глубина : 16 бит
Метод сжатия : С потерями
Размер потока : 187 Мбайт (24%)
Выравнивание : Разделение по промежуткам
Продолжительность промежутка : 40 мс. (1,00 видеокадр)
Время предзагрузки промежутка : 500 мс.

Скриншоты

[Торрент-статистика]
[Профиль]  [ЛС] 
Показать сообщения:    
Ответить на тему

Текущее время: Сегодня 14:47

Часовой пояс: GMT + 4



Вы не можете начинать темы
Вы не можете отвечать на сообщения
Вы не можете редактировать свои сообщения
Вы не можете удалять свои сообщения
Вы не можете голосовать в опросах
Вы не можете прикреплять файлы к сообщениям
Вы не можете скачивать файлы