Диггеры (Тихон Корнев) (2016, фантастика, Ужасы, WEB-DLRip)

Ответить на тему
 
Автор
Сообщение

Волк ®

Пол:

Стаж: 5 лет 1 месяц

Сообщений: 689

Репутация: 292 [+] [-]

Откуда: Армения

Пост 16-Сен-2016 20:14

[Цитировать] 

Диггеры-
Производство: Россия
Жанр: Ужасы-Режиссер: Тихон Корнев-Актеры: Роман Евдокимов, Анна Васильева, Алёна Савастова, Владимир Кузнецов, Андрей Лёвин, Мария Щекатурова, Евгений Коряковский, Дин Фан, Кирилл Кобзарев, Валерия Шкирандо-Описание:
Ночное метро. Несколько минут до закрытия. Последний поезд на полном ходу пролетает мимо конечной станции, увозя в темноту туннеля ничего не понимающих пассажиров. Официальные власти засекречивают информацию о бесследно исчезнувших людях. Через несколько дней, на поиски пропавших отправляются их друзья. Им предстоит вспомнить все жуткие городские легенды, которыми окутано московское подземелье.... И узнать, что реальность может быть намного страшнее...-Возраст: 16+ (зрителям, достигшим 16 лет)
Дата мировой премьеры: 11 августа 2016
Дата российской премьеры: 11 августа 2016, «Централ Партнершип»-Продолжительность: 01:18:55
Качество видео: WEB-DLRip
Перевод: Не требуется (русский)
Реклама: присутствуют аудио и видео вставки рекламы.-Видео: Xvid, 720х304, 2 022 kb/s
Аудио: AC3, 2 ch, 448 kb/s-

Mediainfo

Diggers.21O6.O.WEB-DLRip.14OOMB.avi
Format : AVI
Format/Info : Audio Video Interleave
File size : 1.37 GiB
Duration : 1 h 18 min
Overall bit rate : 2 479 kb/s
Writing application : VirtualDubMod 1.5.10.2 (build 2540/release)
Writing library : VirtualDubMod build 2540/release
Video
ID : 0
Format : MPEG-4 Visual
Format profile : Advanced Simple@L5
Format settings, BVOP : 2
Format settings, QPel : No
Format settings, GMC : No warppoints
Format settings, Matrix : Custom
Codec ID : XVID
Codec ID/Hint : XviD
Duration : 1 h 18 min
Bit rate : 2 022 kb/s
Width : 720 pixels
Height : 304 pixels
Display aspect ratio : 2.35:1
Frame rate : 25.000 FPS
Color space : YUV
Chroma subsampling : 4:2:0
Bit depth : 8 bits
Scan type : Progressive
Compression mode : Lossy
Bits/(Pixel*Frame) : 0.369
Stream size : 1.11 GiB (82%)
Writing library : XviD 1.2.1 (UTC 2008-12-04)
Audio
ID : 1
Format : AC-3
Format/Info : Audio Coding 3
Mode extension : CM (complete main)
Format settings, Endianness : Big
Codec ID : 2000
Duration : 1 h 18 min
Bit rate mode : Constant
Bit rate : 448 kb/s
Channel(s) : 2 channels
Channel positions : Front: L R
Sampling rate : 48.0 kHz
Frame rate : 31.250 FPS (1536 spf)
Compression mode : Lossy
Stream size : 253 MiB (18%)
Alignment : Split accross interleaves
Interleave, duration : 40 ms (1.00 video frame)
Interleave, preload duratio : 500 ms

Скриншоты:

[Торрент-статистика]
[Профиль]  [ЛС] 
Показать сообщения:    
Ответить на тему

Текущее время: Сегодня 22:06

Часовой пояс: GMT + 4



Вы не можете начинать темы
Вы не можете отвечать на сообщения
Вы не можете редактировать свои сообщения
Вы не можете удалять свои сообщения
Вы не можете голосовать в опросах
Вы не можете прикреплять файлы к сообщениям
Вы не можете скачивать файлы