Овечка Долли была злая и рано умерла (Алексей Пиманов) [2015, фантастика, комедия, приключения, WEB-DLRip]

Ответить на тему
 
Автор
Сообщение

TiZAr ®

Пол:

Стаж: 3 года 3 месяца

Сообщений: 836

Репутация: 1157 [+] [-]

Откуда: Россия

Пост 11-Сен-2015 18:06

[Цитировать] 

Информация о фильме
Название: Овечка Долли была злая и рано умерла
Год выхода: 2015
Жанр: фантастика, комедия, приключения
Режиссер: Алексей Пиманов
В ролях: Данила Шевченко, Юлия Савичева, Виктор Сухоруков, Роман Полянский, Виктория Маслова, Борис Щербаков, Анна Шерлинг, Юлия Пожидаева, Антон Феоктистов, Ирина Ильинская
О фильме:
Главный герой — современный молодой человек Никита, студент МИФИ, в результате научного эксперимента попадает в прошлое, где ему предстоит встретить не только своих молодых родителей, но найти новых друзей и обрести настоящую любовь в лице студентки Маши. Эта встреча заставляет его по-другому посмотреть на свою жизнь. Однако Никита вдруг понимает, что начинает стремительно стареть и спастись он может только если вернется обратно — в свое время. Но сделать это оказалось не так просто….

Страна: Россия
Студия: Пиманов Фильм
Продолжительность: 01:56:37
Перевод: Не требуется
Файл
Кодек: XviD / AC3
Качество: WEB-DLRip
Видео: MPEG4, XviD, 720x304 (2.35:1), 25.000 fps, 1 582 Kbps (0.289 bit/pixel)
Звук: AC-3, 48.0 KHz, 2 ch, 192 Kbps, CBR
Семпл

Скриншоты

MediaInfo

General
Complete name : Овечка.Долли.была.злая.и.рано.умерла.2015.WEB-DLRip.nnm-club.avi
Format : AVI
Format/Info : Audio Video Interleave
File size : 1.45 GiB
Duration : 1h 56mn
Overall bit rate : 1 784 Kbps
Writing application : VirtualDubMod 1.5.10.2 (build 2540/release)
Writing library : VirtualDubMod build 2540/release
Video
ID : 0
Format : MPEG-4 Visual
Format profile : Advanced Simple@L5
Format settings, BVOP : 2
Format settings, QPel : No
Format settings, GMC : No warppoints
Format settings, Matrix : Default (MPEG)
Codec ID : XVID
Codec ID/Hint : XviD
Duration : 1h 56mn
Bit rate : 1 582 Kbps
Width : 720 pixels
Height : 304 pixels
Display aspect ratio : 2.35:1
Frame rate : 25.000 fps
Color space : YUV
Chroma subsampling : 4:2:0
Bit depth : 8 bits
Scan type : Progressive
Compression mode : Lossy
Bits/(Pixel*Frame) : 0.289
Stream size : 1.29 GiB (89%)
Writing library : XviD 1.2.1 (UTC 2008-12-04)
Audio
ID : 1
Format : AC-3
Format/Info : Audio Coding 3
Mode extension : CM (complete main)
Format settings, Endianness : Big
Codec ID : 2000
Duration : 1h 56mn
Bit rate mode : Constant
Bit rate : 192 Kbps
Channel(s) : 2 channels
Channel positions : Front: L R
Sampling rate : 48.0 KHz
Bit depth : 16 bits
Compression mode : Lossy
Stream size : 160 MiB (11%)
Alignment : Split accross interleaves
Interleave, duration : 40 ms (1.00 video frame)
Interleave, preload duration : 500 ms

_________________
Не стоит обращать внимания на отсутствие сидов на моих раздачах. Все мои релизы мультитрекерные - нет сидов, включите DHT.
За релизами в HD качестве обращайтесь в личку, либо отписывайтесь в теме.
[Торрент-статистика]
[Профиль]  [ЛС] 
Показать сообщения:    
Ответить на тему

Текущее время: Сегодня 00:15

Часовой пояс: GMT + 4



Вы не можете начинать темы
Вы не можете отвечать на сообщения
Вы не можете редактировать свои сообщения
Вы не можете удалять свои сообщения
Вы не можете голосовать в опросах
Вы не можете прикреплять файлы к сообщениям
Вы не можете скачивать файлы