Ёлки лохматые (Максим Свешников) [2014, Комедия, семейный, приключения HDRip] UNIONGANG | Лицензия

Ответить на тему
 
Автор
Сообщение

Волк ®

Пол:

Стаж: 5 лет

Сообщений: 689

Репутация: 292 [+] [-]

Откуда: Армения

Пост 04-Фев-2015 20:30

[Цитировать] 

Ёлки лохматые- Выпущено: Россия, Базелевс Продакшн
Жанр: Комедия, семейный, приключения
Год выпуска: 2014
Продолжительность: 01:25:48-Режиссёр: Максим Свешников-В ролях: Андрей Мерзликин, Ян Цапник, Валерия Стреляева, Галина Коньшина, Игорь Власов, Сергей Троев, Айса Энимал Арт, Пётр Фёдоров, Анна Чиповская, Андрей Федорцов-Описание: "Ёлки лохматые" - продолжение одной сюжетной линии из "Ёлки 3". На этот раз хозяйка Пирата и Йоко — самарская девочка Настя — улетает с бабушкой в Питер, оставляя питомцев в отеле для собак. Расценив это как предательство, животные сбегают домой, где можно наконец почувствовать себя человеком — есть сколько угодно, играть без устали и спать на хозяйской кровати. Но райский отдых влюбленных прерывают два незадачливых воришки, которых ждет нечеловеческий прием...- -Качество видео: HDRip [Исходник: BDRip (1080p) от ELEKTRI4KA]
Формат видео: AVI
Видео: XviD, 1982 Кбит/с, 720x304 (2.35:1), 24 кадр/с
Аудио: Русский, Dolby AC3, 48000 Гц, 448 Кбит/с, 6 каналов (5.1)-

MediaInfo

General
Complete name : Yolki.lohmatye.2014.HDRip.avi
Format : AVI
Format/Info : Audio Video Interleave
File size : 1.46 GiB
Duration : 1h 25mn
Overall bit rate : 2 438 Kbps
Writing application : VirtualDubMod 1.5.10.3 (build 2550/release)
Writing library : VirtualDubMod build 2550/release
Copyright : rip by ivandubskoj
Video
ID : 0
Format : MPEG-4 Visual
Format profile : Advanced Simple@L5
Format settings, BVOP : 1
Format settings, QPel : No
Format settings, GMC : No warppoints
Format settings, Matrix : Custom
Codec ID : XVID
Codec ID/Hint : XviD
Duration : 1h 25mn
Bit rate : 1 982 Kbps
Width : 720 pixels
Height : 304 pixels
Display aspect ratio : 2.35:1
Frame rate : 24.000 fps
Color space : YUV
Chroma subsampling : 4:2:0
Bit depth : 8 bits
Scan type : Progressive
Compression mode : Lossy
Bits/(Pixel*Frame) : 0.377
Stream size : 1.19 GiB (81%)
Writing library : XviD 73
Audio
ID : 1
Format : AC-3
Format/Info : Audio Coding 3
Mode extension : CM (complete main)
Codec ID : 2000
Duration : 1h 25mn
Bit rate mode : Constant
Bit rate : 448 Kbps
Channel(s) : 6 channels
Channel positions : Front: L C R, Side: L R, LFE
Sampling rate : 48.0 KHz
Bit depth : 16 bits
Compression mode : Lossy
Stream size : 275 MiB (18%)
Alignment : Split accross interleaves
Interleave, duration : 64 ms (1.54 video frames)
Interleave, preload duration : 500 ms

Скриншот c названием фильма

Скриншоты

[Торрент-статистика]
[Профиль]  [ЛС] 
Показать сообщения:    
Ответить на тему

Текущее время: Сегодня 15:33

Часовой пояс: GMT + 4



Вы не можете начинать темы
Вы не можете отвечать на сообщения
Вы не можете редактировать свои сообщения
Вы не можете удалять свои сообщения
Вы не можете голосовать в опросах
Вы не можете прикреплять файлы к сообщениям
Вы не можете скачивать файлы