Я не вернусь / I'm Not Coming Back (Ильмар Рааг / Ilmar Raag) [2014 г., драма, WEBRip]

Ответить на тему
 
Автор
Сообщение

ArtZak ®

Пол:

Стаж: 5 лет 1 месяц

Сообщений: 3008

Репутация: 1363 [+] [-]

Откуда: Россия

Пост 18-Окт-2014 22:45

[Цитировать] 

Я не вернусь / I'm Not Coming Back- Год выпуска: 2014
Производство: Белоруссия, Казахстан, Россия, Финляндия, Эстония | Amrion, Беларусьфильм, Helsinki-Filmi, Кинокомпания CTB
Жанр: драма
Продолжительность: 01:45:05
Режиссер: Ильмар Рааг / Ilmar Raag- -В ролях:
Полина Пушкарук, Вика Лобачева, Андрей Астраханцев, Сергей Яценюк, Ольга Белинская, Алла Еминцева, Саша Лесникова, Юрий Орлов, Галина Мочалова, Татьяна Зыкова и др.
Описание:
Аня — красивая успешная девушка, учится в аспирантуре, читает лекции по Байрону, и у нее роман с профессором, но в один момент ее жизнь переворачивается, и чтобы избежать ложного обвинения, она убегает, прикинувшись подростком-беспризорником. Маска тинэйджера и знакомство с такой же отчаянной, но действительно маленькой Кристиной обращает бегство девушки в новый путь: заново пережив отрочество, Аня начисто переписывает свою жизнь.
Тип релиза: WEBRip | Сэмпл
Контейнер: AVI
Видео кодек: XviD
Аудио кодек: AC3 (Dolby Digital)
Видео: MPEG4, XviD, 720x304 (2.35:1), 25.000 fps, 1 786 Kbps (0.326 bit/pixel)
Аудио: AC-3, 48.0 KHz, 2 ch, 192 Kbps, CBR

MI

Код:
General
Complete name                            : C:\downloads\Ya_He_Bepnyc.WEBRip.avi
Format                                   : AVI
Format/Info                              : Audio Video Interleave
File size                                : 1.46 GiB
Duration                                 : 1h 45mn
Overall bit rate                         : 1 988 Kbps
Writing application                      : VirtualDubMod 1.5.10.3 | www.virtualdub-fr.org || (build 2550/release)
Writing library                          : VirtualDubMod build 2550/release
Video
ID                                       : 0
Format                                   : MPEG-4 Visual
Format profile                           : Advanced Simple@L5
Format settings, BVOP                    : 2
Format settings, QPel                    : No
Format settings, GMC                     : No warppoints
Format settings, Matrix                  : Default (MPEG)
Codec ID                                 : XVID
Codec ID/Hint                            : XviD
Duration                                 : 1h 45mn
Bit rate                                 : 1 786 Kbps
Width                                    : 720 pixels
Height                                   : 304 pixels
Display aspect ratio                     : 2.35:1
Frame rate                               : 25.000 fps
Color space                              : YUV
Chroma subsampling                       : 4:2:0
Bit depth                                : 8 bits
Scan type                                : Progressive
Compression mode                         : Lossy
Bits/(Pixel*Frame)                       : 0.326
Stream size                              : 1.31 GiB (90%)
Writing library                          : XviD 1.2.1 (UTC 2008-12-04)
Audio
ID                                       : 1
Format                                   : AC-3
Format/Info                              : Audio Coding 3
Mode extension                           : CM (complete main)
Format settings, Endianness              : Big
Codec ID                                 : 2000
Duration                                 : 1h 45mn
Bit rate mode                            : Constant
Bit rate                                 : 192 Kbps
Channel count                            : 2 channels
Channel positions                        : Front: L R
Sampling rate                            : 48.0 KHz
Bit depth                                : 16 bits
Compression mode                         : Lossy
Stream size                              : 144 MiB (10%)
Alignment                                : Split accross interleaves
Interleave, duration                     : 40 ms (1.00 video frame)
Interleave, preload duration             : 500 ms

Скриншоты



Последний раз редактировалось: ArtZak (2015-08-18 23:27), всего редактировалось 1 раз
[Торрент-статистика]
[Профиль]  [ЛС] 

Violator

Пол:

Стаж: 4 года 1 месяц

Сообщений: 36

Репутация: 0 [+] [-]

Пост 18-Авг-2015 22:54 (спустя 10 месяцев)

[Цитировать] 

Вот это надо глянуть.
[Торрент-статистика]
[Профиль]  [ЛС] 
Показать сообщения:    
Ответить на тему

Текущее время: Сегодня 00:21

Часовой пояс: GMT + 4



Вы не можете начинать темы
Вы не можете отвечать на сообщения
Вы не можете редактировать свои сообщения
Вы не можете удалять свои сообщения
Вы не можете голосовать в опросах
Вы не можете прикреплять файлы к сообщениям
Вы не можете скачивать файлы