Не в парнях счастье (Кира Ангелина) [2014 г., Мелодрама, HDTVRip]

Ответить на тему
 
Автор
Сообщение

Mumz ®

Пол:

Стаж: 4 года 10 месяцев

Сообщений: 2

Репутация: 3 [+] [-]

Откуда: MO

Пост 22-Сен-2014 14:03

[Цитировать] 

Не в парнях счастье
Год выпуска: 2014
Страна: Россия
Жанр: Мелодрама
Продолжительность: 01:33:31
Режиссер: Кира Ангелина
В ролях: Любовь Баханкова, Марина Могилевская, Кирилл Плетнёв, Агата Муцениеце, Михаил Гаврилов (II)
Описание: Жизнь не балует Диану – вечные семейные ссоры, безденежье и однообразные студенческие будни. Но однажды в ее жизнь приходит чудо – она встречает Его. Сергей прекрасен, как герой ее снов, и девушка теряет голову от любви. Однако нежданное счастье внезапно обрывается: накануне свадьбы Диана застает любимого в объятиях лучшей подруги. Девушка в ужасе, она не знает, как простить предательство и как жить дальше. В этот переломный момент ей на помощь приходит мать Сергея, Елена – успешная, независимая бизнес-леди. Следуя ее наставлениям, героиня решает порвать с прошлыми наивными мечтами и стать расчетливой стервой, идущей к своей цели и ломающей все преграды на своем пути…
Перевод: Не требуется (язык русский)
Доп. информация:
Дата мировой премьеры: 22 июня 2014
Дата российской премьеры: 14 сентября 2014
Тип релиза: HDTVRip
Контейнер: AVI
Видео кодек: XviD
Аудио кодек: AC3 (Dolby Digital)
Видео: 720x400 (1.80:1), 25 fps, XviD build 73 ~2039 kbps avg, 0.28 bit/pixel
Аудио: 48 kHz, AC3 Dolby Digital, 2/0 (L,R) ch, ~192 kbps

MI

General
Complete name : D:\Films\Не в парнях счастье (2014)\Ne v parnyh schastje 2014 HDTVRip.avi
Format : AVI
Format/Info : Audio Video Interleave
File size : 1.46 GiB
Duration : 1h 33mn
Overall bit rate : 2 241 Kbps
Writing application : VirtualDubMod 1.5.10.3 | www.virtualdub-fr.org || (build 2550/release)
Writing library : VirtualDubMod build 2550/release
Video
ID : 0
Format : MPEG-4 Visual
Format profile : Advanced Simple@L5
Format settings, BVOP : 1
Format settings, QPel : No
Format settings, GMC : No warppoints
Format settings, Matrix : Custom
Codec ID : XVID
Codec ID/Hint : XviD
Duration : 1h 33mn
Bit rate : 2 039 Kbps
Width : 720 pixels
Height : 400 pixels
Display aspect ratio : 16:9
Frame rate : 25.000 fps
Color space : YUV
Chroma subsampling : 4:2:0
Bit depth : 8 bits
Scan type : Progressive
Compression mode : Lossy
Bits/(Pixel*Frame) : 0.283
Stream size : 1.33 GiB (91%)
Writing library : XviD 73
Audio
ID : 1
Format : AC-3
Format/Info : Audio Coding 3
Mode extension : CM (complete main)
Format settings, Endianness : Big
Codec ID : 2000
Duration : 1h 33mn
Bit rate mode : Constant
Bit rate : 192 Kbps
Channel(s) : 2 channels
Channel positions : Front: L R
Sampling rate : 48.0 KHz
Bit depth : 16 bits
Compression mode : Lossy
Stream size : 128 MiB (9%)
Alignment : Split accross interleaves
Interleave, duration : 40 ms (1.00 video frame)
Interleave, preload duration : 500 ms

Скриншоты


_________________
ПРАКТИКА - это соединение твоего представления о жизни с представлением
жизни о тебе. Виктор Кротов
[Торрент-статистика]
[Профиль]  [ЛС] 
Показать сообщения:    
Ответить на тему

Текущее время: Сегодня 16:17

Часовой пояс: GMT + 4



Вы не можете начинать темы
Вы не можете отвечать на сообщения
Вы не можете редактировать свои сообщения
Вы не можете удалять свои сообщения
Вы не можете голосовать в опросах
Вы не можете прикреплять файлы к сообщениям
Вы не можете скачивать файлы