Весёлые ребята;) (Алексей Бобров) [2014 г., комедия, WEB-DLRip] [iTunes]

Ответить на тему
 
Автор
Сообщение

ArtZak ®

Пол:

Стаж: 5 лет 1 месяц

Сообщений: 3008

Репутация: 1363 [+] [-]

Откуда: Россия

Пост 21-Сен-2014 03:04

[Цитировать] 

Весёлые ребята ad- Год выпуска: 2014
Страна: Россия
Жанр: комедия
Продолжительность: 01:32:13
Режиссер: Алексей Бобров- -В ролях:
Катерина Шпица, Валерий Меладзе, Александр Миронов, Сергей Клепиков, Никита Быченков, Юрий Чигров, Павел Шмарёв, Юлия Скарга, Анастасия Клюева, Виктор Тереля, Андрей Рапопорт, Наталья Щукина, Татьяна Лютаева, Ола Кейру, Евгений Тихомиров, София Каштанова, Сергей Газаров, Алексей Шевченков, Татьяна Лютаева, Иван Дорн и др.
Описание:
Простой автослесарь Костя Потехин любит петь, а недавно он влюбился в девушку своей мечты, покорить сердце которой с имеющимися исходными, данными не просто. Он решает поучаствовать в конкурсе молодых талантов, который будет проходить в столице. Однако, приехав в Москву на кастинг, наш герой с удивлением узнаёт, что к участию принимаются только музыкальные коллективы. До конкурса остается всего несколько дней, и одинокому начинающему певцу нужно срочно собрать группу, иначе все его планы рухнут. За эти несколько дней Костя найдёт настоящих друзей и встретит настоящую любовь.
Тип релиза: WEB-DLRip
Контейнер: AVI
Видео кодек: XviD
Аудио кодек: AC3 (Dolby Digital)
Видео: MPEG4, XviD, 720x304 (2.35:1), 24.000 fps, 1 729 Kbps (0.329 bit/pixel)
Аудио: AC-3, 48.0 KHz, 6 ch, 384 Kbps, CBR

MI

Код:
General
Complete name                            : C:\downloads\Veselye.rebyata.2014.WEB-DLRip.XviD.1400MB.avi
Format                                   : AVI
Format/Info                              : Audio Video Interleave
File size                                : 1.37 GiB
Duration                                 : 1h 32mn
Overall bit rate                         : 2 122 Kbps
Writing application                      : VirtualDubMod 1.5.10.3 | www.virtualdub-fr.org || (build 2550/release)
Writing library                          : VirtualDubMod build 2550/release
Video
ID                                       : 0
Format                                   : MPEG-4 Visual
Format profile                           : Advanced Simple@L5
Format settings, BVOP                    : 2
Format settings, QPel                    : No
Format settings, GMC                     : No warppoints
Format settings, Matrix                  : Default (MPEG)
Codec ID                                 : XVID
Codec ID/Hint                            : XviD
Duration                                 : 1h 32mn
Bit rate                                 : 1 729 Kbps
Width                                    : 720 pixels
Height                                   : 304 pixels
Display aspect ratio                     : 2.35:1
Frame rate                               : 24.000 fps
Color space                              : YUV
Chroma subsampling                       : 4:2:0
Bit depth                                : 8 bits
Scan type                                : Progressive
Compression mode                         : Lossy
Bits/(Pixel*Frame)                       : 0.329
Stream size                              : 1.11 GiB (81%)
Writing library                          : XviD 1.2.1 (UTC 2008-12-04)
Audio
ID                                       : 1
Format                                   : AC-3
Format/Info                              : Audio Coding 3
Mode extension                           : CM (complete main)
Format settings, Endianness              : Big
Codec ID                                 : 2000
Duration                                 : 1h 32mn
Bit rate mode                            : Constant
Bit rate                                 : 384 Kbps
Channel count                            : 6 channels
Channel positions                        : Front: L C R, Side: L R, LFE
Sampling rate                            : 48.0 KHz
Bit depth                                : 16 bits
Compression mode                         : Lossy
Stream size                              : 253 MiB (18%)
Alignment                                : Split accross interleaves
Interleave, duration                     : 42 ms (1.00 video frame)
Interleave, preload duration             : 500 ms

Скриншоты

[Торрент-статистика]
[Профиль]  [ЛС] 
Показать сообщения:    
Ответить на тему

Текущее время: Сегодня 00:24

Часовой пояс: GMT + 4



Вы не можете начинать темы
Вы не можете отвечать на сообщения
Вы не можете редактировать свои сообщения
Вы не можете удалять свои сообщения
Вы не можете голосовать в опросах
Вы не можете прикреплять файлы к сообщениям
Вы не можете скачивать файлы