Кухня в Париже (Дмитрий Дьяченко) [2014 г., Комедия, WEB-DLRip]

Ответить на тему
 
Автор
Сообщение

nova1980 ®

Пол:

Стаж: 5 лет

Сообщений: 820

Репутация: 523 [+] [-]

Откуда: Одесса Мама

Пост 01-Июн-2014 01:35

[Цитировать] 

Кухня в Париже-Год выпуска: 2014
Страна: Россия
Жанр: Комедия
Продолжительность: 01:46:42-Режиссер: Дмитрий Дьяченко-В ролях: Дмитрий Назаров, Олег Табаков, Дмитрий Нагиев, Венсан Перес, Элена Ногуэрра, Елена Подкаминская, Марк Богатырев, Виктор Хориняк, Сергей Лавыгин, Михаил Тарабукин.-Описание: Модный столичный ресторан «Клод Моне» процветает. Именно здесь, в родном заведении Вика и Максим хотят отпраздновать долгожданную свадьбу. Но планы меняются, когда в ресторане назначают переговоры Президентов России и Франции! Команда ресторана терпит фиаско и вынуждена отправиться в «изгнание» — в Париж. Там Шеф с Максом сталкиваются с опасными конкурентами: Шеф — с ближайшим родственником, а Максим — с красавцем Николя, который кружит Вике голову не хуже искристого шампанского! И это еще не все вызовы, которые бросает им «Город любви», ведь надо постараться спасти репутацию, накормить Президентов и преодолеть миллион препятствий à la française…- -Тип релиза: WEB-DLRip
Контейнер: MP4
Видео кодек: H264 (AVC)
Аудио кодек: AAC LC
Видео: AVC, 640x272 (2.35), 24.000 fps, 427 Kbps (0.102 bit/pixel)
Аудио: AAC LC, 48.0 KHz, 2 ch, 128 Kbps, VBR [iTunes ]

MediaInfo

General
Complete name : D:\нотик\Видео\Kuhnia.2014.WEB-DLRip.by.mjjhec.mp4
Format : MPEG-4
Format profile : Base Media
Codec ID : isom
File size : 426 MiB
Duration : 1h 46mn
Overall bit rate : 558 Kbps
Encoded date : UTC 2014-05-31 20:34:12
Tagged date : UTC 2014-05-31 20:34:12
Video
ID : 1
Format : AVC
Format/Info : Advanced Video Codec
Format profile : Baseline@L2.2
Format settings, CABAC : No
Format settings, ReFrames : 8 frames
Codec ID : avc1
Codec ID/Info : Advanced Video Coding
Duration : 1h 46mn
Bit rate : 427 Kbps
Maximum bit rate : 3 475 Kbps
Width : 640 pixels
Height : 272 pixels
Display aspect ratio : 2.35:1
Frame rate mode : Constant
Frame rate : 24.000 fps
Color space : YUV
Chroma subsampling : 4:2:0
Bit depth : 8 bits
Scan type : Progressive
Bits/(Pixel*Frame) : 0.102
Stream size : 326 MiB (77%)
Writing library : x264 core 125 r2208 d9d2288
Encoding settings : cabac=0 / ref=8 / deblock=0:0:0 / analyse=0x1:0x111 / me=umh / subme=7 / psy=1 / psy_rd=1.00:0.10 / mixed_ref=1 / me_range=16 / chroma_me=1 / trellis=2 / 8x8dct=0 / cqm=0 / deadzone=21,11 / fast_pskip=1 / chroma_qp_offset=-3 / threads=6 / lookahead_threads=1 / sliced_threads=0 / nr=0 / decimate=1 / interlaced=0 / bluray_compat=0 / constrained_intra=0 / bframes=0 / weightp=0 / keyint=250 / keyint_min=23 / scenecut=40 / intra_refresh=0 / rc_lookahead=50 / rc=crf / mbtree=1 / crf=25.0 / qcomp=0.60 / qpmin=0 / qpmax=69 / qpstep=4 / ip_ratio=1.40 / aq=1:1.00
Encoded date : UTC 2014-05-31 20:34:12
Tagged date : UTC 2014-05-31 20:34:21
Audio
ID : 2
Format : AAC
Format/Info : Advanced Audio Codec
Format profile : LC
Codec ID : 40
Duration : 1h 46mn
Bit rate mode : Variable
Bit rate : 128 Kbps
Maximum bit rate : 138 Kbps
Channel(s) : 2 channels
Channel positions : Front: L R
Sampling rate : 48.0 KHz
Compression mode : Lossy
Stream size : 97.7 MiB (23%)
Encoded date : UTC 2014-05-31 20:34:19
Tagged date : UTC 2014-05-31 20:34:21

Скриншоты


_________________
Мои Раздачи
[Торрент-статистика]
[Профиль]  [ЛС] 
Показать сообщения:    
Ответить на тему

Текущее время: Сегодня 00:25

Часовой пояс: GMT + 4



Вы не можете начинать темы
Вы не можете отвечать на сообщения
Вы не можете редактировать свои сообщения
Вы не можете удалять свои сообщения
Вы не можете голосовать в опросах
Вы не можете прикреплять файлы к сообщениям
Вы не можете скачивать файлы