Трудно быть Богом (Алексей Герман) [2013 г., фантастика, драма, WEB-DLRip] [iTunes Russia]

Ответить на тему
 
Автор
Сообщение

awk05 ®

Пол:

Стаж: 4 года 5 месяцев

Сообщений: 1352

Репутация: 275 [+] [-]

Откуда: Западная Украина Ривне

Пост 02-Май-2014 22:02

[Цитировать] 

-- Трудно быть Богом-- Год выхода: 2013
Выпущено: Россия / Среда Фетисов Филмс
Жанр: фантастика, драма
Продолжительность: 02:57:09
Озвучивание: Оригинальное [iTunes Russia]
Субтитры: отсутствуют--Режиссер: Алексей Герман--В ролях: Леонид Ярмольник, Юрий Цурило, Наталья Мотева, Александр Чутко, Евгений Герчаков, Александр Ильин, Пётр Меркурьев, Олег Ботин, Константин Быков, Юрий Думчев--О фильме: На планете, погружённой в глухое Средневековье, работают наблюдатели-земляне, которые пытаются бережно подправлять ход событий, не нарушая логическое развитие истории. Главный герой, дон Румата Эсторский, осознавая свою задачу сохранения нейтралитета, тем не менее, не выдерживает, когда в Арканаре (одном из городов планеты) захватывает власть «чёрное братство», свергнувшее господство «серых», столь же отвратительных, но не столь кровавых. Румата берётся за меч, чтобы покарать злодеев, и тем самым нарушает все правила и закономерности, вмешиваясь в чужой исторический процесс.--Качество видео:WEB-DLRip
Формат видео: AVI
Видео кодек: MPEG4, XviD
Аудио кодек: AC-3
Видео: 720x400 (16:9), 24,000 кадра/сек, 1 267 Кбит/сек, (0.183 бит/пиксели*кадры)
Аудио: 6 каналов Front: L C R, Side: L R, LFE, 48,0 КГц, 384 Кбит/сек, 16 бит CBR[RUS] -- --

Тех. данные (MI)

Общее
Полное имя : Trudno.Byti.Bogom.2013.O.WEB-DLRip.2100MB.nnm-clu.avi
Формат : AVI
Формат/Информация : Audio Video Interleave
Размер файла : 2,05 Гбайт
Продолжительность : 2 ч. 57 м.
Общий поток : 1660 Кбит/сек
Программа кодирования : VirtualDubMod 1.5.10.2 (build 2540/release)
Библиотека кодирования : VirtualDubMod build 2540/release
Видео
Идентификатор : 0
Формат : MPEG-4 Visual
Профиль формата : Advanced Simple@L5
Параметр BVOP формата : 2
Параметр QPel формата : Нет
Параметр GMC формата : Без точки перехода
Параметр матрицы формата : Выборочная
Идентификатор кодека : XVID
Идентификатор кодека/Подсказка : XviD
Продолжительность : 2 ч. 57 м.
Битрейт : 1267 Кбит/сек
Ширина : 720 пикселей
Высота : 400 пикселей
Соотношение сторон : 16:9
Частота кадров : 24,000 кадра/сек
Цветовое пространство : YUV
Субдискретизация насыщенности : 4:2:0
Битовая глубина : 8 бит
Тип развёртки : Прогрессивная
Метод сжатия : С потерями
Бит/(Пиксели*Кадры) : 0.183
Размер потока : 1,57 Гбайт (76%)
Библиотека кодирования : XviD 1.2.1 (UTC 2008-12-04)
Аудио
Идентификатор : 1
Формат : AC-3
Формат/Информация : Audio Coding 3
Расширение режима : CM (complete main)
Параметр Endianness формата : Big
Идентификатор кодека : 2000
Продолжительность : 2 ч. 57 м.
Вид битрейта : Постоянный
Битрейт : 384 Кбит/сек
Каналы : 6 каналов
Расположение каналов : Front: L C R, Side: L R, LFE
Частота : 48,0 КГц
Битовая глубина : 16 бит
Метод сжатия : С потерями
Размер потока : 487 Мбайт (23%)
Выравнивание : Разделение по промежуткам
Продолжительность промежутка : 42 мс. (1,00 видеокадр)
Время предзагрузки промежутка : 500 мс.

Знаете ли Вы, что...

* По сценарию название картины должно было быть «Что сказал табачник с Табачной улицы». К весне 2008 году Алексей Герман завершил монтаж фильма и хотел назвать её «Резня в Арканаре» или «Хроника Арканарской резни». В августе 2011 режиссер заявил, что фильм находится на стадии озвучки и окончательный вариант названия будет такое же, как у повести братьев Стругацких «Трудно быть богом».
* Режиссер решил снимать «Трудно быть богом» еще в 1968 году, через 4 года после выхода книги. Вместе с Борисом Стругацким они написали первый вариант сценария. В августе Герман получил разрешение на съёмки, но вскоре началась операция «Дунай» — вторжение в Чехословакию войск СССР и других стран Варшавского договора, поэтому режиссеру не разрешили снимать фильм. Производство картины затянулось по причине трудностей с финансированием и сложности озвучания.
* Натурные съемки начались весной 2000 года в Чехии. В окрестностях замка Точник был построен Арканар. Павильонные съемки проходили в Санкт-Петербурге.
* 21 февраля 2013 года Алексей Герман скончался, так и не успев закончить фильм. Завершали работу над картиной его сын, Алексей Герман мл., и Светлана Кармалита.
* Съемки начались в 2000 году и закончились в 2006 году. С тех пор, Алексей Герман работал в основном над звуком. К сожалению, он умер в феврале 2013 года, не успев доработать звуковую составляющую.

Скриншоты




_________________
[Торрент-статистика]
[Профиль]  [ЛС] 

3rikovi4

Пол:

Стаж: 5 лет

Сообщений: 1131

Репутация: 1036 [+] [-]

Откуда: Бывший СССР

Пост 03-Май-2014 00:18 (спустя 2 часа 15 минут)

[Цитировать] 

А почему на IMDB открывается: "История арканарской резни"? bn

_________________
Не стоит прогибаться под изменчивый мир. Пусть лучше он прогнётся под нас!
[Торрент-статистика]
[Профиль]  [ЛС] 

awk05 ®

Пол:

Стаж: 4 года 5 месяцев

Сообщений: 1352

Репутация: 275 [+] [-]

Откуда: Западная Украина Ривне

Пост 03-Май-2014 00:58 (спустя 40 минут)

[Цитировать] 

45704А почему на IMDB открывается: "История арканарской резни"? bn
глюк с низу пишет трудно быть богом на латыни

_________________
[Торрент-статистика]
[Профиль]  [ЛС] 

info_nowa

Пол:

Стаж: 5 лет

Сообщений: 531

Репутация: 223 [+] [-]

Откуда: BY

Пост 04-Май-2014 11:44 (спустя 1 день 10 часов)

[Цитировать] 

Дождался таки

_________________
В поиске духовного просветления.
[Торрент-статистика]
[Профиль]  [ЛС] 
Показать сообщения:    
Ответить на тему

Текущее время: Сегодня 22:05

Часовой пояс: GMT + 4



Вы не можете начинать темы
Вы не можете отвечать на сообщения
Вы не можете редактировать свои сообщения
Вы не можете удалять свои сообщения
Вы не можете голосовать в опросах
Вы не можете прикреплять файлы к сообщениям
Вы не можете скачивать файлы