Разрешите тебя поцеловать… на свадьбе (Мария Сергеенкова) [2013 г., комедия, DVDRip] [Лицензия]

Ответить на тему
 
Автор
Сообщение

TiZAr ®

Пол:

Стаж: 3 года 3 месяца

Сообщений: 836

Репутация: 1157 [+] [-]

Откуда: Россия

Пост 05-Мар-2014 01:31

[Цитировать] 

Разрешите тебя поцеловать… на свадьбе- Год выпуска: 2013
Страна: Россия / Грин-фильм
Жанр: комедия
Продолжительность: 01:28:05
Режиссер: Мария Сергеенкова- -В ролях:
Игорь Лифанов, Мария Куликова, Борис Щербаков, Андрей Струговец, Серафима Низовская, Михаил Трясоруков, Сергей Лосев, Ольга Кирсанова и др.
Описание:
Прошел год после событий фильма «Разрешите тебя поцеловать…снова», в котором Власов с честью вышел из истории с «генеральской внучкой». Теперь он восстановлен в звании полковника. Генерал же готовится к «повышению» и благополучному выходу на пенсию. Только вот единственная часть портит ему все показатели и ставит под угрозу «заслуженный отдых». Есть только один человек, способный в кратчайшие сроки навести в подразделении порядок. Григория Власова и Наташу переводят в Санкт-Петербург!
Власов говорит о том, что теперь на новом месте службы и в новой квартире можно и про свадьбу подумать. «Разрешите пригласить тебя в ЗАГС», — заявляет он. Но сначала нужно навести в части порядок. Вверенное ему подразделение находится просто в плачевном состоянии. Проверка может нагрянуть буквально в любой момент, а без успешных оценок «плакала» и новая квартира, и жизнь в «северной столице» и пенсия у генерала. Словом, пройти проверку нужно только «на пять»! Наш герой вынужден разрываться между наведением порядка в полку и подготовкой к свадьбе, ведь на все это у него есть только неделя! Ситуация усложняется когда в полку появляется проверяющий, полковник Светлана Иваненко — бывшая жена Григория Власова. Тут уж Григорию точно никакого «спуску» не будет! Свадьба под угрозой срыва, между Наташей и Власовым летают «гром и молнии»… «Отменяй, Власов, свадьбу!» — заявляет Иваненко. Не тут-то было! Наш герой преодолеет все преграды, снова докажет свою любовь, с честью решит все проблемы и, наконец, сможет поцеловать свою невесту… на свадьбе!
Тип релиза: DVDRip | Сэмпл
Контейнер: AVI
Видео кодек: XviD
Аудио кодек: AC3 (Dolby Digital)
Видео: 720x400 (1.80:1), 25 fps, XviD build 50 ~1955 kbps avg, 0.27 bit/pixel
Аудио: 48 kHz, AC3 Dolby Digital, 2/0 (L,R) ch, ~256.00 kbps avg

MI

Код:
General
Complete name                            : E:\downloads\Razreshite.tebya.pocelovatj.na.svadjbe.2013.O.DVDRip.avi
Format                                   : AVI
Format/Info                              : Audio Video Interleave
File size                                : 1.37 GiB
Duration                                 : 1h 28mn
Overall bit rate                         : 2 222 Kbps
Writing application                      : VirtualDubMod 1.5.10.3 | www.virtualdub-fr.org || (build 2550/release)
Writing library                          : VirtualDubMod build 2550/release
Video
ID                                       : 0
Format                                   : MPEG-4 Visual
Format profile                           : Advanced Simple@L5
Format settings, BVOP                    : 2
Format settings, QPel                    : No
Format settings, GMC                     : No warppoints
Format settings, Matrix                  : Default (MPEG)
Codec ID                                 : XVID
Codec ID/Hint                            : XviD
Duration                                 : 1h 28mn
Bit rate                                 : 1 956 Kbps
Width                                    : 720 pixels
Height                                   : 400 pixels
Display aspect ratio                     : 16:9
Frame rate                               : 25.000 fps
Color space                              : YUV
Chroma subsampling                       : 4:2:0
Bit depth                                : 8 bits
Scan type                                : Progressive
Compression mode                         : Lossy
Bits/(Pixel*Frame)                       : 0.272
Stream size                              : 1.20 GiB (88%)
Writing library                          : XviD 1.2.1 (UTC 2008-12-04)
Audio
ID                                       : 1
Format                                   : AC-3
Format/Info                              : Audio Coding 3
Mode extension                           : CM (complete main)
Format settings, Endianness              : Big
Codec ID                                 : 2000
Duration                                 : 1h 28mn
Bit rate mode                            : Constant
Bit rate                                 : 256 Kbps
Channel count                            : 2 channels
Channel positions                        : Front: L R
Sampling rate                            : 48.0 KHz
Bit depth                                : 16 bits
Compression mode                         : Lossy
Stream size                              : 161 MiB (12%)
Alignment                                : Split accross interleaves
Interleave, duration                     : 40 ms (1.00 video frame)
Interleave, preload duration             : 500 ms

Скриншоты


_________________
Не стоит обращать внимания на отсутствие сидов на моих раздачах. Все мои релизы мультитрекерные - нет сидов, включите DHT.
За релизами в HD качестве обращайтесь в личку, либо отписывайтесь в теме.
[Торрент-статистика]
[Профиль]  [ЛС] 
Показать сообщения:    
Ответить на тему

Текущее время: Сегодня 00:27

Часовой пояс: GMT + 4



Вы не можете начинать темы
Вы не можете отвечать на сообщения
Вы не можете редактировать свои сообщения
Вы не можете удалять свои сообщения
Вы не можете голосовать в опросах
Вы не можете прикреплять файлы к сообщениям
Вы не можете скачивать файлы