Лед (Павел Дроздов) [2013 г., драма, семейный, спорт, SATRip]

Ответить на тему
 
Автор
Сообщение

TiZAr ®

Пол:

Стаж: 3 года 3 месяца

Сообщений: 836

Репутация: 1157 [+] [-]

Откуда: Россия

Пост 23-Фев-2014 19:20

[Цитировать] 

Лед
Хоккей – это то, чем ты дышишь!
- Год выпуска: 2013
Страна: Россия
Жанр: драма, семейный, спорт
Продолжительность: 01:29:09
Режиссер: Павел Дроздов- -В ролях:
Иван Краско, Александр Половцев, Александр Морозов, Елена Соколова, Дмитрий Чистяков и др.
Описание:
Саша - юный и дерзкий хоккеист. После того как его выгнали из команды, он с матерью-врачом переезжает в другой город. Здесь ему и его матери предстоит не только стать частью своей новой команды, но и построить личную жизнь и найти взаимопонимание.
К счастью, благосклонная судьба подкидывает выход из положения: Кирилл случайно знакомится с красивой и острой на язык Лизой, которую вполне можно выдать за невесту. Если бы герой знал, с кем связывается, он бы поостерегся впускать незнакомку в свою жизнь…
Тип релиза: SATRip
Контейнер: AVI
Видео кодек: DivX
Аудио кодек: MP3 (MPEG1 Layer 3)
Видео: MPEG4, DivX 5, 720x304 (2.35:1), 25.000 fps, 2 151 Kbps (0.393 bit/pixel)
Аудио: MP3, 48.0 KHz, 2 ch, 128 Kbps, CBR

MI

Код:
General
Complete name                            : E:\downloads\Led.2014.O.SATRip..1400Mb.avi
Format                                   : AVI
Format/Info                              : Audio Video Interleave
File size                                : 1.37 GiB
Duration                                 : 1h 25mn
Overall bit rate                         : 2 288 Kbps
Writing library                          : VirtualDub build 35491/release
Video
ID                                       : 0
Format                                   : MPEG-4 Visual
Format settings, BVOP                    : 1
Format settings, QPel                    : No
Format settings, GMC                     : No warppoints
Format settings, Matrix                  : Default (H.263)
Muxing mode                              : Packed bitstream
Codec ID                                 : DX50
Codec ID/Hint                            : DivX 5
Duration                                 : 1h 25mn
Bit rate                                 : 2 151 Kbps
Width                                    : 720 pixels
Height                                   : 304 pixels
Display aspect ratio                     : 2.35:1
Frame rate                               : 25.000 fps
Color space                              : YUV
Chroma subsampling                       : 4:2:0
Bit depth                                : 8 bits
Scan type                                : Progressive
Compression mode                         : Lossy
Bits/(Pixel*Frame)                       : 0.393
Stream size                              : 1.29 GiB (94%)
Writing library                          : DivX 6.8.5 (UTC 2009-08-20)
Audio
ID                                       : 1
Format                                   : MPEG Audio
Format version                           : Version 1
Format profile                           : Layer 3
Mode                                     : Joint stereo
Mode extension                           : MS Stereo
Codec ID                                 : 55
Codec ID/Hint                            : MP3
Duration                                 : 1h 25mn
Bit rate mode                            : Constant
Bit rate                                 : 128 Kbps
Channel count                            : 2 channels
Sampling rate                            : 48.0 KHz
Compression mode                         : Lossy
Stream size                              : 78.4 MiB (6%)
Alignment                                : Split accross interleaves
Interleave, duration                     : 40 ms (1.00 video frame)
Interleave, preload duration             : 500 ms

Скриншоты



_________________
Не стоит обращать внимания на отсутствие сидов на моих раздачах. Все мои релизы мультитрекерные - нет сидов, включите DHT.
За релизами в HD качестве обращайтесь в личку, либо отписывайтесь в теме.
[Торрент-статистика]
[Профиль]  [ЛС] 
Показать сообщения:    
Ответить на тему

Текущее время: Сегодня 16:14

Часовой пояс: GMT + 4



Вы не можете начинать темы
Вы не можете отвечать на сообщения
Вы не можете редактировать свои сообщения
Вы не можете удалять свои сообщения
Вы не можете голосовать в опросах
Вы не можете прикреплять файлы к сообщениям
Вы не можете скачивать файлы