Друзья друзей (Артем Аксененко, Араик Оганесян) [2013 г., комедия, DVDRip] [Лицензия]

Ответить на тему
 
Автор
Сообщение

TiZAr ®

Пол:

Стаж: 3 года 3 месяца

Сообщений: 836

Репутация: 1157 [+] [-]

Откуда: Россия

Пост 05-Фев-2014 05:19

[Цитировать] 

Друзья друзей
«Бодрая комедия»
- Год выпуска: 2013
Страна: Россия / Enjoy Movies
Жанр: комедия
Продолжительность: 01:26:52
Режиссер: Артем Аксененко, Араик Оганесян- -В ролях:
Нюша Шурочкина, Гарик Харламов, Юрий Стоянов, Николай Наумов, Александр Ильин мл., Тимур Батрутдинов, Александр Молочников, Андрей Гайдулян, Олег Верещагин, Александр Булатов и др.
Описание:
В канун Нового года пересекаются истории промоутера, впервые оставшегося дома с пятилетним ребенком, трех музыкантов из филармонии, решившихся на ограбление сурового бизнесмена, на домашнюю вечеринку к которому их отправил тот самый промоутер, и бедного студента, пригласившего на первое свидание в дорогой ресторан дочку того самого сурового бизнесмена. В результате, каждый из героев попадет в нелепые, пикантные, опасные, но все равно очень смешные ситуации, выбраться из которых им, конечно, помогут, друзья…
Доп. информация: В память Марины Голуб. Последняя роль Хорошей актрисы.
Тип релиза: DVDRip | Сэмпл
Контейнер: AVI
Видео кодек: XviD
Аудио кодек: AC3 (Dolby Digital)
Видео: MPEG4, XviD, 720x384 (1.875), 25.000 fps, 1 798 Kbps (0.260 bit/pixel)
Аудио: AC-3, 48.0 KHz, 6 ch, 448 Kbps, CBR

MI

Код:
General
Complete name                            : Druzja.druzey.2013.O.DVDRip.1400MB.avi
Format                                   : AVI
Format/Info                              : Audio Video Interleave
File size                                : 1.37 GiB
Duration                                 : 1h 26mn
Overall bit rate                         : 2 256 Kbps
Writing application                      : VirtualDubMod 1.5.10.3 | www.virtualdub-fr.org || (build 2550/release)
Writing library                          : VirtualDubMod build 2550/release
Video
ID                                       : 0
Format                                   : MPEG-4 Visual
Format profile                           : Advanced Simple@L5
Format settings, BVOP                    : 2
Format settings, QPel                    : No
Format settings, GMC                     : No warppoints
Format settings, Matrix                  : Default (MPEG)
Codec ID                                 : XVID
Codec ID/Hint                            : XviD
Duration                                 : 1h 26mn
Bit rate                                 : 1 798 Kbps
Width                                    : 720 pixels
Height                                   : 384 pixels
Display aspect ratio                     : 1.85:1
Frame rate                               : 25.000 fps
Color space                              : YUV
Chroma subsampling                       : 4:2:0
Bit depth                                : 8 bits
Scan type                                : Progressive
Compression mode                         : Lossy
Bits/(Pixel*Frame)                       : 0.260
Stream size                              : 1.09 GiB (80%)
Writing library                          : XviD 73
Audio
ID                                       : 1
Format                                   : AC-3
Format/Info                              : Audio Coding 3
Mode extension                           : CM (complete main)
Format settings, Endianness              : Big
Codec ID                                 : 2000
Duration                                 : 1h 26mn
Bit rate mode                            : Constant
Bit rate                                 : 448 Kbps
Channel count                            : 6 channels
Channel positions                        : Front: L C R, Side: L R, LFE
Sampling rate                            : 48.0 KHz
Bit depth                                : 16 bits
Compression mode                         : Lossy
Stream size                              : 278 MiB (20%)
Alignment                                : Split accross interleaves
Interleave, duration                     : 40 ms (1.00 video frame)
Interleave, preload duration             : 500 ms

Скриншоты



_________________
Не стоит обращать внимания на отсутствие сидов на моих раздачах. Все мои релизы мультитрекерные - нет сидов, включите DHT.
За релизами в HD качестве обращайтесь в личку, либо отписывайтесь в теме.
[Торрент-статистика]
[Профиль]  [ЛС] 
Показать сообщения:    
Ответить на тему

Текущее время: Сегодня 00:28

Часовой пояс: GMT + 4



Вы не можете начинать темы
Вы не можете отвечать на сообщения
Вы не можете редактировать свои сообщения
Вы не можете удалять свои сообщения
Вы не можете голосовать в опросах
Вы не можете прикреплять файлы к сообщениям
Вы не можете скачивать файлы