Страна хороших деточек (Ольга Каптур) [2013 г., детский, приключения, семейный, WEB-DLRip] [iTunes]

Ответить на тему
 
Автор
Сообщение

TiZAr ®

Пол:

Стаж: 3 года 3 месяца

Сообщений: 836

Репутация: 1157 [+] [-]

Откуда: Россия

Пост 31-Дек-2013 11:12

[Цитировать] 

Страна хороших деточек
«А вы хорошо себя ведете?»
- Год выпуска: 2013
Страна: Россия / Новые люди
Жанр: детский, приключения, семейный
Продолжительность: 01:18:48
Режиссер: Ольга Каптур- -В ролях:
Кира Флейшер (Саша), Вячеслав Манучаров (полпред), Наталья Селезнёва (бабушка), Владимир Грамматиков (дедушка), Андрей Кайков (Кот Багет), Ирина Пегова (мама), Дмитрий Назаров (папа), Евгений Воскресенский (часовщик), Ивонн Каттерфельд (Королева), Дарья Андреева (хорошая девочка № 1), Полина Буданцева (хорошая девочка № 2), Родион Смирнов (мальчик № 7)
Описание:
Девочка Саша была весёлой, но не очень хорошей девочкой. Она жила с бабушкой, дедушкой, мамой, папой, псом Балбесом и котом Багетом. Однажды в новогоднюю ночь по загаданному в сердцах желанию родителей Саша была отправлена волшебником в Страну Хороших Деточек на перевоспитание. Только действительно ли так хороша эта страна?
Качество: WEB-DLRip | Сэмпл
Контейнер: AVI
Исходник: WEB-DL 720р
Видео: XviD, 720x400 (16:9), 2247 kbps, 25 fps, 0,312 bpp
Аудио: AC3 / 5.1 / 48 kHz / 384 kbps / 16 bit

MI

Код:
General
Complete name                            : E:\My_rip\Strana.horoshih.detochek.2013.WEBDLRip.[New-Team].avi
Format                                   : AVI
Format/Info                              : Audio Video Interleave
File size                                : 1.45 GiB
Duration                                 : 1h 18mn
Overall bit rate                         : 2 642 Kbps
Writing application                      : VirtualDubMod 1.5.10.3 | www.virtualdub-fr.org || (build 2550/release)
Writing library                          : VirtualDubMod build 2550/release
Video
ID                                       : 0
Format                                   : MPEG-4 Visual
Format profile                           : Advanced Simple@L5
Format settings, BVOP                    : 1
Format settings, QPel                    : No
Format settings, GMC                     : No warppoints
Format settings, Matrix                  : Custom
Muxing mode                              : Packed bitstream
Codec ID                                 : XVID
Codec ID/Hint                            : XviD
Duration                                 : 1h 18mn
Bit rate                                 : 2 248 Kbps
Width                                    : 720 pixels
Height                                   : 400 pixels
Display aspect ratio                     : 16:9
Frame rate                               : 25.000 fps
Color space                              : YUV
Chroma subsampling                       : 4:2:0
Bit depth                                : 8 bits
Scan type                                : Progressive
Compression mode                         : Lossy
Bits/(Pixel*Frame)                       : 0.312
Stream size                              : 1.24 GiB (85%)
Writing library                          : XviD 65
Audio
ID                                       : 1
Format                                   : AC-3
Format/Info                              : Audio Coding 3
Mode extension                           : CM (complete main)
Codec ID                                 : 2000
Duration                                 : 1h 18mn
Bit rate mode                            : Constant
Bit rate                                 : 384 Kbps
Channel(s)                               : 6 channels
Channel positions                        : Front: L C R, Side: L R, LFE
Sampling rate                            : 48.0 KHz
Bit depth                                : 16 bits
Compression mode                         : Lossy
Stream size                              : 216 MiB (15%)
Alignment                                : Split accross interleaves
Interleave, duration                     : 40 ms (1.00 video frame)
Interleave, preload duration             : 500 ms

Скриншоты


_________________
Не стоит обращать внимания на отсутствие сидов на моих раздачах. Все мои релизы мультитрекерные - нет сидов, включите DHT.
За релизами в HD качестве обращайтесь в личку, либо отписывайтесь в теме.
[Торрент-статистика]
[Профиль]  [ЛС] 
Показать сообщения:    
Ответить на тему

Текущее время: Сегодня 16:15

Часовой пояс: GMT + 4



Вы не можете начинать темы
Вы не можете отвечать на сообщения
Вы не можете редактировать свои сообщения
Вы не можете удалять свои сообщения
Вы не можете голосовать в опросах
Вы не можете прикреплять файлы к сообщениям
Вы не можете скачивать файлы