Распутин (Ираклий Квирикадзе) [2013 г., драма, биография, история, DVDRip] [Лицензия]

Ответить на тему
 
Автор
Сообщение

TiZAr ®

Пол:

Стаж: 3 года 3 месяца

Сообщений: 836

Репутация: 1157 [+] [-]

Откуда: Россия

Пост 11-Дек-2013 23:04

[Цитировать] 

Распутин
«Дар или проклятие»
- Год выпуска: 2013
Страна: Россия / B-Tween, ВГТРК
Жанр: драма, биография, история
Продолжительность: 01:23:02
Субтитры: нет
Режиссер: Ираклий Квирикадзе- -В ролях:
Жерар Депардье, Фанни Ардан, Владимир Машков, Анна Михалкова, Филипп Янковский, Ирина Алферова, Данила Козловский, Юрий Колокольников, Ксения Раппопорт, Константин Хабенский и др.
Описание:
Начало ХХ века, Европа охвачена войной, Российская империя на краю пропасти. Внезапное появление загадочного Григория Распутина в царских покоях вызывает волну негодования при дворе. Сибирский целитель облегчает страдания неизлечимо больного наследника престола, проповедует и творит чудеса. Императрица уверена, что всё не случайно и Григорий — божий человек, спаситель, посланный свыше. Ее уверенность разделяют далеко не все. Вокруг «святого беса» плетутся заговоры, его мистическая власть над царской семьей и нежная дружба с императрицей раздражают слишком многих. Россия, монархия и Распутин в эпицентре приближающейся катастрофы.
Качество: DVDRip
Формат: AVI
Видео: 720x384 (1.88:1), 25 fps, XviD build 50 ~1898 kbps avg, 0.27 bit/pixel
Аудио: 48 kHz, AC3 Dolby Digital, 3/2 (L,C,R,l,r) + LFE ch, ~448 kbps

MI

Код:
General
Complete name                            : E:\downloads\Rasputin_2013.DVDRip.avi
Format                                   : AVI
Format/Info                              : Audio Video Interleave
File size                                : 1.37 GiB
Duration                                 : 1h 23mn
Overall bit rate                         : 2 356 Kbps
Writing application                      : VirtualDubMod 1.5.10.2 (build 2540/release)
Writing library                          : VirtualDubMod build 2540/release
Video
ID                                       : 0
Format                                   : MPEG-4 Visual
Format profile                           : Advanced Simple@L5
Format settings, BVOP                    : 2
Format settings, QPel                    : No
Format settings, GMC                     : No warppoints
Format settings, Matrix                  : Custom
Codec ID                                 : XVID
Codec ID/Hint                            : XviD
Duration                                 : 1h 23mn
Bit rate                                 : 1 899 Kbps
Width                                    : 720 pixels
Height                                   : 384 pixels
Display aspect ratio                     : 1.85:1
Frame rate                               : 25.000 fps
Color space                              : YUV
Chroma subsampling                       : 4:2:0
Bit depth                                : 8 bits
Scan type                                : Progressive
Compression mode                         : Lossy
Bits/(Pixel*Frame)                       : 0.275
Stream size                              : 1.10 GiB (81%)
Writing library                          : XviD 1.2.1 (UTC 2008-12-04)
Audio
ID                                       : 1
Format                                   : AC-3
Format/Info                              : Audio Coding 3
Mode extension                           : CM (complete main)
Format settings, Endianness              : Big
Codec ID                                 : 2000
Duration                                 : 1h 23mn
Bit rate mode                            : Constant
Bit rate                                 : 448 Kbps
Channel count                            : 6 channels
Channel positions                        : Front: L C R, Side: L R, LFE
Sampling rate                            : 48.0 KHz
Bit depth                                : 16 bits
Compression mode                         : Lossy
Stream size                              : 266 MiB (19%)
Alignment                                : Split accross interleaves
Interleave, duration                     : 40 ms (1.00 video frame)
Interleave, preload duration             : 500 ms

Скриншоты




_________________
Не стоит обращать внимания на отсутствие сидов на моих раздачах. Все мои релизы мультитрекерные - нет сидов, включите DHT.
За релизами в HD качестве обращайтесь в личку, либо отписывайтесь в теме.
[Торрент-статистика]
[Профиль]  [ЛС] 
Показать сообщения:    
Ответить на тему

Текущее время: Сегодня 14:48

Часовой пояс: GMT + 4



Вы не можете начинать темы
Вы не можете отвечать на сообщения
Вы не можете редактировать свои сообщения
Вы не можете удалять свои сообщения
Вы не можете голосовать в опросах
Вы не можете прикреплять файлы к сообщениям
Вы не можете скачивать файлы