Вечная сказка (Станислав Либин) [2013, мелодрама, HDTVRip]

Ответить на тему
 
Автор
Сообщение

TiZAr ®

Пол:

Стаж: 3 года 3 месяца

Сообщений: 836

Репутация: 1157 [+] [-]

Откуда: Россия

Пост 10-Дек-2013 04:11

[Цитировать] 

Вечная сказка- Жанр: мелодрама
Год выпуска: 2013
Продолжительность: 01:27:00
Режиссёр: Станислав Либин- -В ролях:
Валерия Ланская, Никита Зверев, Екатерина Волкова, Тимур Ефременков, Владислав Ветров, Алла Захарова, Рамиль Сабитов, Иван Шабалтас, Владислав Дунаев, Олеся Быкова и др.
Описание:
Главная героиня Юля подрабатывает певицей в ресторане. У неё фобия — она боится зрителей. Юля — очень честный человек, который даже не подозревает какая судьба ей уготована…..

Качество видео: HDTVRip | Сэмпл
Формат видео: AVI
Видео: MPEG4, XviD, 720x400 (16:9), 25.000 fps, 2 035 Kbps (0.283 bit/pixel)
Аудио: AC-3, 48.0 KHz, 2 ch, 192 Kbps, CBR

MediaInfo

Код:
General
Complete name                            : Vecnaja.skazka.2013.HDTVRip.Files-x.avi
Format                                   : AVI
Format/Info                              : Audio Video Interleave
File size                                : 1.36 GiB
Duration                                 : 1h 27mn
Overall bit rate                         : 2 237 Kbps
Writing application                      : VirtualDubModRus 1.5.10.2 (build 2542/release)
Writing library                          : VirtualDubMod build 2542/release
Video
ID                                       : 0
Format                                   : MPEG-4 Visual
Format profile                           : Advanced Simple@L5
Format settings, BVOP                    : 2
Format settings, QPel                    : No
Format settings, GMC                     : No warppoints
Format settings, Matrix                  : Default (MPEG)
Codec ID                                 : XVID
Codec ID/Hint                            : XviD
Duration                                 : 1h 27mn
Bit rate                                 : 2 035 Kbps
Width                                    : 720 pixels
Height                                   : 400 pixels
Display aspect ratio                     : 16:9
Frame rate                               : 25.000 fps
Color space                              : YUV
Chroma subsampling                       : 4:2:0
Bit depth                                : 8 bits
Scan type                                : Progressive
Compression mode                         : Lossy
Bits/(Pixel*Frame)                       : 0.283
Stream size                              : 1.24 GiB (91%)
Writing library                          : XviD 1.2.1 (UTC 2008-12-04)
Audio
ID                                       : 1
Format                                   : AC-3
Format/Info                              : Audio Coding 3
Mode extension                           : CM (complete main)
Format settings, Endianness              : Big
Codec ID                                 : 2000
Duration                                 : 1h 27mn
Bit rate mode                            : Constant
Bit rate                                 : 192 Kbps
Channel count                            : 2 channels
Channel positions                        : Front: L R
Sampling rate                            : 48.0 KHz
Bit depth                                : 16 bits
Compression mode                         : Lossy
Stream size                              : 120 MiB (9%)
Alignment                                : Split accross interleaves
Interleave, duration                     : 40 ms (1.00 video frame)
Interleave, preload duration             : 500 ms

Скриншоты



_________________
Не стоит обращать внимания на отсутствие сидов на моих раздачах. Все мои релизы мультитрекерные - нет сидов, включите DHT.
За релизами в HD качестве обращайтесь в личку, либо отписывайтесь в теме.
[Торрент-статистика]
[Профиль]  [ЛС] 
Показать сообщения:    
Ответить на тему

Текущее время: Сегодня 01:46

Часовой пояс: GMT + 4



Вы не можете начинать темы
Вы не можете отвечать на сообщения
Вы не можете редактировать свои сообщения
Вы не можете удалять свои сообщения
Вы не можете голосовать в опросах
Вы не можете прикреплять файлы к сообщениям
Вы не можете скачивать файлы