Под властью мусора (Анастасия Попова) [2013 г., документальный, SATRip] (канал Россия 1)

Ответить на тему
 
Автор
Сообщение

TiZAr ®

Пол:

Стаж: 3 года 3 месяца

Сообщений: 836

Репутация: 1157 [+] [-]

Откуда: Россия

Пост 19-Ноя-2013 22:39

[Цитировать] 

Под властью мусора- Год выпуска: 2013
Страна: Россия

Жанр: документальный
Продолжительность: 00:48:25
Перевод: Не требуется
Режиссер: Анастасия Попова
Описание:
Это место – ад на земле. Но здесь живут люди, хотя никто из них не доживает до тридцати лет. Этот ад создан электронным мусором, который нелегально свозят сюда со всего мира – ежедневно, ежечасно… Сюда никогда не ступала нога туриста. Путешествие в ад – игра со смертью. Но авторы фильма "Под властью мусора" отправились в этот опасный путь, потому что это страшное поселение на краю Западной Африки у вод Гвинейского залива – маленькая проекция мира, которая завтра разрастется до глобальных размеров.
Проекция мира, который очень скоро окажется под властью мусора… Самая крупная и опасная в мире африканская хай-тэк свалка – страшное место, но не единственное на пути авторов кино. Они облетят пол земного шара, в попытке показать нашу современную цивилизацию с ее индустрией потребления, техническим прогрессом, растущей экономикой и культом гигиены… сквозь призму мусора. Мы создаем мусор, а мусор создает нас. Он меняет нашу планету, наши тела, наше сознание. Он имеет над нами такую большую власть, что в это сложно поверить. Сегодня, гадая на мусорной куче, ученые и философы предсказывают как минимум два шокирующих сценария будущего нашей цивилизации. В одном мусор приведет человечество к деградации и гибели. В другом он нас спасет и даже поднимет на новую ступень эволюции. Так кто же из них прав, и что ждет нас завтра?
Качество: SATRip
Формат: AVI
Видео: MPEG4, DivX 5, 720x400 (16:9), 25.000 fps, 1 500 Kbps (0.208 bit/pixel)
Аудио: MP2, 48.0 KHz, 2 ch, 128 Kbps, CBR

MI

General
Complete name : C:\Users\ArtZak\Downloads\Под властью мусора (2013).avi
Format : AVI
Format/Info : Audio Video Interleave
File size : 567 MiB
Duration : 48mn 25s
Overall bit rate : 1 638 Kbps
Writing application : VirtualDubModRus 1.5.10.1 (build 2439/release)
Writing library : VirtualDubMod build 2439/release
Video
ID : 0
Format : MPEG-4 Visual
Format settings, BVOP : 1
Format settings, QPel : No
Format settings, GMC : No warppoints
Format settings, Matrix : Default (H.263)
Muxing mode : Packed bitstream
Codec ID : DX50
Codec ID/Hint : DivX 5
Duration : 48mn 25s
Bit rate : 1 500 Kbps
Width : 720 pixels
Height : 400 pixels
Display aspect ratio : 16:9
Frame rate : 25.000 fps
Color space : YUV
Chroma subsampling : 4:2:0
Bit depth : 8 bits
Scan type : Progressive
Compression mode : Lossy
Bits/(Pixel*Frame) : 0.208
Stream size : 520 MiB (92%)
Writing library : DivX 6.8.5 (UTC 2009-08-20)
Audio
ID : 1
Format : MPEG Audio
Format version : Version 1
Format profile : Layer 2
Codec ID : 50
Duration : 48mn 25s
Bit rate mode : Constant
Bit rate : 128 Kbps
Channel count : 2 channels
Sampling rate : 48.0 KHz
Compression mode : Lossy
Stream size : 44.3 MiB (8%)
Alignment : Aligned on interleaves
Interleave, duration : 40 ms (1.00 video frame)
Interleave, preload duration : 504 ms

Скриншоты




_________________
Не стоит обращать внимания на отсутствие сидов на моих раздачах. Все мои релизы мультитрекерные - нет сидов, включите DHT.
За релизами в HD качестве обращайтесь в личку, либо отписывайтесь в теме.
[Торрент-статистика]
[Профиль]  [ЛС] 

Vinnitu7

Стаж: 4 года 11 месяцев

Сообщений: 1

Репутация: 0 [+] [-]

Пост 21-Ноя-2013 23:46 (спустя 2 дня 1 час)

[Цитировать] 

спасибо. не удалось посмотреть по телеку. да ещё и без рекламмы!...
[Торрент-статистика]
[Профиль]  [ЛС] 
Показать сообщения:    
Ответить на тему

Текущее время: Сегодня 00:22

Часовой пояс: GMT + 4



Вы не можете начинать темы
Вы не можете отвечать на сообщения
Вы не можете редактировать свои сообщения
Вы не можете удалять свои сообщения
Вы не можете голосовать в опросах
Вы не можете прикреплять файлы к сообщениям
Вы не можете скачивать файлы