Тайны забытых побед [2002-2006 г., Военный, Документальные сериалы, Исторический, Техника, DVDRip]

Ответить на тему
 
Автор
Сообщение

3232fox ®

Пол:

Стаж: 3 года 9 месяцев

Сообщений: 614

Репутация: 423 [+] [-]

Откуда: Крым,Россия

Пост 06-Авг-2013 00:38

[Цитировать] 

-Тайны забытых побед-Год выпуска: 2002-2006
Страна: Россия
Жанр: Военный, Документальные сериалы, Исторический, Техника
Продолжительность: 35 Х ~00:26:00
Режиссеры: Борис Смирнов, Денис Филюков, Фаид Симфоров-Описание: Каждый фильм этого цикла действительно о забытых, а порой и неизвестных, скрытых строжайшими секретами победах. Великих победах наших ученых, инженеров, конструкторов, о которых важно знать всем нам, которыми нужно гордиться. Когда вышел первый фильм этого цикла о крылатой ракете "Буря", как две капли воды похожей на нынешний американский "Шаттл" и успешно испытанной на 20 лет раньше "Шаттла", больше всего были потрясены американцы. Они понятия не имели, что еще в 1957 году мы смогли сделать такое. В год первого спутника!
Таких историй в цикле много. Ибо в основе многих сюжетов лежат материалы некогда секретных съемок испытаний военной техники. Все это публиковалось впервые. Так же как впервые рассказывалось о выдающихся ученых и конструкторах - создателях этой техники. От ракет до подводных лодок, от фантастических летательных аппаратов по разным причинам (особенно из-за дороговизны, но чаще из-за конкурентных интриг) не пошедших в серию, не ставших на вооружение армии, до тех прославленных машин, которые и сегодня по всем параметрам превосходят любые зарубежные аналоги.
Некоторые фильмы цикла посвящены выдающимся полководцам, одержавшим решающие, но тоже уже забытые победы во второй мировой войне, испытателям летательных аппаратов, строителям подводного атомного флота, великим ученым России... В 2002 годы "Тайны забытых побед" были отмечены премией "Лавр" как лучший документальный сериал, а в 2003 году фильм "Звезда Северина" получил приз на 6-м Европейском телефоруме.
-Тип релиза: DVDRip
Контейнер: MKV
Видео кодек: H264 (AVC)
Аудио кодек: AC3 (Dolby Digital)
Видео: MPEG4 AVC, 768 x 576 & 1024 х 640, 25.000 fps, 1650 - 1894 Кбит/с
Аудио: AC-3, 2 ch, 192 Кбит/с-

Скриншоты

MI

General
UniqueID : 204678912235542099703417047128872956276 (0x99FBB97FC5C31AE8B40297C90C8DB174)
Complete name : G:\видео\Taini.Zabitix.Pobed. 2006.x264.DVDRip.(AVC).by.HD-NET\Глава 1. Легенды российской авиации\.x264.DVDRip.(AVC).by.HD-NET.mkv
Format : Matroska
File size : 353 MiB
Duration : 26mn 5s
Overall bit rate : 1 892 Kbps
Encoded date : UTC 2013-07-12 21:42:23
Writing application : mkvmerge v6.1.0 ('Old Devil') built on Mar 4 2013 09:10:42
Writing library : libebml v1.3.0 + libmatroska v1.4.0
Video
ID : 1
Format : AVC
Format/Info : Advanced Video Codec
Format profile : High@L4.1
Format settings, CABAC : Yes
Format settings, ReFrames : 5 frames
Format settings, GOP : M=1, N=16
Codec ID : V_MPEG4/ISO/AVC
Duration : 26mn 5s
Bit rate : 1 700 Kbps
Width : 768 pixels
Height : 576 pixels
Display aspect ratio : 4:3
Frame rate : 25.000 fps
Color space : YUV
Chroma subsampling : 4:2:0
Bit depth : 8 bits
Scan type : Progressive
Bits/(Pixel*Frame) : 0.154
Stream size : 310 MiB (88%)
Writing library : x264 core 130 r2273 b3065e6
Encoding settings : cabac=1 / ref=5 / deblock=1:-2:-2 / analyse=0x3:0x111 / me=umh / subme=9 / psy=1 / psy_rd=0.00:0.10 / mixed_ref=1 / me_range=32 / chroma_me=1 / trellis=2 / 8x8dct=1 / cqm=0 / deadzone=21,11 / fast_pskip=0 / chroma_qp_offset=-1 / threads=6 / lookahead_threads=1 / sliced_threads=0 / nr=0 / decimate=1 / interlaced=0 / bluray_compat=0 / constrained_intra=0 / bframes=5 / b_pyramid=2 / b_adapt=0 / b_bias=0 / direct=1 / weightb=1 / open_gop=0 / weightp=2 / keyint=250 / keyint_min=25 / scenecut=40 / intra_refresh=0 / rc_lookahead=50 / rc=2pass / mbtree=1 / bitrate=1700 / ratetol=1.0 / qcomp=0.60 / qpmin=0 / qpmax=69 / qpstep=4 / cplxblur=20.0 / qblur=0.5 / ip_ratio=1.40 / aq=1:1.00
Audio
ID : 2
Format : AC-3
Format/Info : Audio Coding 3
Mode extension : CM (complete main)
Codec ID : A_AC3
Duration : 26mn 5s
Bit rate mode : Constant
Bit rate : 192 Kbps
Channel(s) : 2 channels
Channel positions : Front: L R
Sampling rate : 48.0 KHz
Bit depth : 16 bits
Compression mode : Lossy
Stream size : 35.8 MiB (10%)

Список серий

Глава 1. Легенды российской авиации.
Засекреченный рекорд
Испытание неизвестностью
Преодоление
Проект Х
Трагедия русского чуда
Устремленный в будущее
Глава 2. Взрыв из прошлого.
Властелин Севера
Дамоклов меч
Озарения Вернадского
Ил-2: Оружие победы
Катюша: Оружие победы
Т-34: Оружие победы
Глава 3. Великие неизвестные.
Запредельный конструктор
Защита Грушина
«Звезда» Северина
Художник стратегического назначения
Штурман
Эффект Алексеева
Глава 4. Стратегический щит.
Буря: Приказано уничтожить!
Его ракетное величество
Закрытое небо
Скальпель
Укрощение сатаны
Уральский дракон
Глава 5. Военные хроники.
Голос эпохи
Догнать и уничтожить!
Маршал побед
Победа над временем
Флагман
Глава 6. Русский космос.
Забвение Бурана
Лунная гонка
Причал Вселенной
Самарский резидент
Трасса Кондратюка
Энергия триумфа
[Торрент-статистика]
[Профиль]  [ЛС] 
Показать сообщения:    
Ответить на тему

Текущее время: Сегодня 14:49

Часовой пояс: GMT + 4



Вы не можете начинать темы
Вы не можете отвечать на сообщения
Вы не можете редактировать свои сообщения
Вы не можете удалять свои сообщения
Вы не можете голосовать в опросах
Вы не можете прикреплять файлы к сообщениям
Вы не можете скачивать файлы